  0
SECTION
  2
HEADER
  9
$ACADVER
  1
AC1027
  9
$ACADMAINTVER
 70
   106
  9
$DWGCODEPAGE
  3
ANSI_1252
  9
$TITLE
  1
Anschluß
  9
$SUBJECT
  1
Auge AU11 M3,5 Ø4,1 t=4
  9
$AUTHOR
  1
MHaidle
  9
$CUSTOMPROPERTYTAG
  1
Manager
  9
$CUSTOMPROPERTY
  1

  9
$CUSTOMPROPERTYTAG
  1
Firma
  9
$CUSTOMPROPERTY
  1

  9
$CUSTOMPROPERTYTAG
  1
Kategorie
  9
$CUSTOMPROPERTY
  1

  9
$CUSTOMPROPERTYTAG
  1
Bauteilnummer
  9
$CUSTOMPROPERTY
  1

  9
$CUSTOMPROPERTYTAG
  1
Bezeichnung
  9
$CUSTOMPROPERTY
  1

  9
$CUSTOMPROPERTYTAG
  1
Projekt
  9
$CUSTOMPROPERTY
  1

  9
$CUSTOMPROPERTYTAG
  1
Konstrukteur
  9
$CUSTOMPROPERTY
  1
DLamberti
  9
$CUSTOMPROPERTYTAG
  1
Ingenieur
  9
$CUSTOMPROPERTY
  1

  9
$CUSTOMPROPERTYTAG
  1
Bevollmächtigter
  9
$CUSTOMPROPERTY
  1

  9
$CUSTOMPROPERTYTAG
  1
Kostenstelle
  9
$CUSTOMPROPERTY
  1

  9
$CUSTOMPROPERTYTAG
  1
Kosten
  9
$CUSTOMPROPERTY
  1

  9
$CUSTOMPROPERTYTAG
  1
Zulieferer
  9
$CUSTOMPROPERTY
  1

  9
$CUSTOMPROPERTYTAG
  1
Benutzerstatus
  9
$CUSTOMPROPERTY
  1

  9
$CUSTOMPROPERTYTAG
  1
Konstruktionsstatus
  9
$CUSTOMPROPERTY
  1
InBearbeitung
  9
$CUSTOMPROPERTYTAG
  1
Kontrolliert von
  9
$CUSTOMPROPERTY
  1

  9
$CUSTOMPROPERTYTAG
  1
Konstruktion genehmigt von
  9
$CUSTOMPROPERTY
  1

  9
$CUSTOMPROPERTYTAG
  1
Fertigung genehmigt von
  9
$CUSTOMPROPERTY
  1

  9
$CUSTOMPROPERTYTAG
  1
Erstellungsdatum
  9
$CUSTOMPROPERTY
  1
11/23/2015
  9
$CUSTOMPROPERTYTAG
  1
Bestandsnummer
  9
$CUSTOMPROPERTY
  1

  9
$CUSTOMPROPERTYTAG
  1
ERSATZ_FUER
  9
$CUSTOMPROPERTY
  1

  9
$CUSTOMPROPERTYTAG
  1
ERSETZT_DURCH
  9
$CUSTOMPROPERTY
  1

  9
$CUSTOMPROPERTYTAG
  1
Datum Überprüfung
  9
$CUSTOMPROPERTY
  1
01/07/2015
  9
$CUSTOMPROPERTYTAG
  1
Baureihe
  9
$CUSTOMPROPERTY
  1

  9
$CUSTOMPROPERTYTAG
  1
AIMD_MATERIAL
  9
$CUSTOMPROPERTY
  1

  9
$CUSTOMPROPERTYTAG
  1
AIMD_DESCRIPTION
  9
$CUSTOMPROPERTY
  1
Auge AU11 M3,5 Ø4,1 t=4
  9
$CUSTOMPROPERTYTAG
  1
1AIMD_REVISION_INDEX
  9
$CUSTOMPROPERTY
  1
A
  9
$CUSTOMPROPERTYTAG
  1
1AIMD_REVISION_DESCRIPTION
  9
$CUSTOMPROPERTY
  1
Senkungstiefe 60° von Ø4 auf Ø5 vergrößert
  9
$CUSTOMPROPERTYTAG
  1
1AIMD_REVISION_DATE
  9
$CUSTOMPROPERTY
  1
07.01.15
  9
$CUSTOMPROPERTYTAG
  1
1AIMD_REVISION_USERNAME
  9
$CUSTOMPROPERTY
  1
UGneiting
  9
$CUSTOMPROPERTYTAG
  1
2AIMD_REVISION_INDEX
  9
$CUSTOMPROPERTY
  1

  9
$CUSTOMPROPERTYTAG
  1
2AIMD_REVISION_DESCRIPTION
  9
$CUSTOMPROPERTY
  1

  9
$CUSTOMPROPERTYTAG
  1
2AIMD_REVISION_DATE
  9
$CUSTOMPROPERTY
  1

  9
$CUSTOMPROPERTYTAG
  1
2AIMD_REVISION_USERNAME
  9
$CUSTOMPROPERTY
  1

  9
$CUSTOMPROPERTYTAG
  1
3AIMD_REVISION_INDEX
  9
$CUSTOMPROPERTY
  1

  9
$CUSTOMPROPERTYTAG
  1
3AIMD_REVISION_DESCRIPTION
  9
$CUSTOMPROPERTY
  1

  9
$CUSTOMPROPERTYTAG
  1
3AIMD_REVISION_DATE
  9
$CUSTOMPROPERTY
  1

  9
$CUSTOMPROPERTYTAG
  1
3AIMD_REVISION_USERNAME
  9
$CUSTOMPROPERTY
  1

  9
$CUSTOMPROPERTYTAG
  1
4AIMD_REVISION_INDEX
  9
$CUSTOMPROPERTY
  1

  9
$CUSTOMPROPERTYTAG
  1
4AIMD_REVISION_DESCRIPTION
  9
$CUSTOMPROPERTY
  1

  9
$CUSTOMPROPERTYTAG
  1
4AIMD_REVISION_DATE
  9
$CUSTOMPROPERTY
  1

  9
$CUSTOMPROPERTYTAG
  1
4AIMD_REVISION_USERNAME
  9
$CUSTOMPROPERTY
  1

  9
$CUSTOMPROPERTYTAG
  1
5AIMD_REVISION_INDEX
  9
$CUSTOMPROPERTY
  1

  9
$CUSTOMPROPERTYTAG
  1
5AIMD_REVISION_DESCRIPTION
  9
$CUSTOMPROPERTY
  1

  9
$CUSTOMPROPERTYTAG
  1
5AIMD_REVISION_DATE
  9
$CUSTOMPROPERTY
  1

  9
$CUSTOMPROPERTYTAG
  1
5AIMD_REVISION_USERNAME
  9
$CUSTOMPROPERTY
  1

  9
$CUSTOMPROPERTYTAG
  1
6AIMD_REVISION_INDEX
  9
$CUSTOMPROPERTY
  1

  9
$CUSTOMPROPERTYTAG
  1
6AIMD_REVISION_DESCRIPTION
  9
$CUSTOMPROPERTY
  1

  9
$CUSTOMPROPERTYTAG
  1
6AIMD_REVISION_DATE
  9
$CUSTOMPROPERTY
  1

  9
$CUSTOMPROPERTYTAG
  1
6AIMD_REVISION_USERNAME
  9
$CUSTOMPROPERTY
  1

  9
$CUSTOMPROPERTYTAG
  1
7AIMD_REVISION_INDEX
  9
$CUSTOMPROPERTY
  1

  9
$CUSTOMPROPERTYTAG
  1
7AIMD_REVISION_DESCRIPTION
  9
$CUSTOMPROPERTY
  1

  9
$CUSTOMPROPERTYTAG
  1
7AIMD_REVISION_DATE
  9
$CUSTOMPROPERTY
  1

  9
$CUSTOMPROPERTYTAG
  1
7AIMD_REVISION_USERNAME
  9
$CUSTOMPROPERTY
  1

  9
$CUSTOMPROPERTYTAG
  1
8AIMD_REVISION_INDEX
  9
$CUSTOMPROPERTY
  1

  9
$CUSTOMPROPERTYTAG
  1
8AIMD_REVISION_DESCRIPTION
  9
$CUSTOMPROPERTY
  1

  9
$CUSTOMPROPERTYTAG
  1
8AIMD_REVISION_DATE
  9
$CUSTOMPROPERTY
  1

  9
$CUSTOMPROPERTYTAG
  1
8AIMD_REVISION_USERNAME
  9
$CUSTOMPROPERTY
  1

  9
$CUSTOMPROPERTYTAG
  1
AIMD_ORIGIN
  9
$CUSTOMPROPERTY
  1

  9
$CUSTOMPROPERTYTAG
  1
AIMD_PARTNO
  9
$CUSTOMPROPERTY
  1

  9
$CUSTOMPROPERTYTAG
  1
AIMD_WEIGHT
  9
$CUSTOMPROPERTY
  1

  9
$CUSTOMPROPERTYTAG
  1
AIMD_WEIGHT_UNIT
  9
$CUSTOMPROPERTY
  1

  9
$REQUIREDVERSIONS
160
                 0
  9
$INSBASE
 10
0.0
 20
0.0
 30
0.0
  9
$EXTMIN
 10
0.0
 20
0.0
 30
0.0
  9
$EXTMAX
 10
58.27113601742389
 20
25.66493688714363
 30
0.0
  9
$LIMMIN
 10
0.0
 20
0.0
  9
$LIMMAX
 10
58.27113601742389
 20
25.66493688714363
  9
$ORTHOMODE
 70
     0
  9
$REGENMODE
 70
     1
  9
$FILLMODE
 70
     1
  9
$QTEXTMODE
 70
     0
  9
$MIRRTEXT
 70
     0
  9
$LTSCALE
 40
0.2
  9
$ATTMODE
 70
     1
  9
$TEXTSIZE
 40
0.2
  9
$TRACEWID
 40
0.05
  9
$TEXTSTYLE
  7
Standard
  9
$CLAYER
  8
0
  9
$CELTYPE
  6
ByLayer
  9
$CECOLOR
 62
   256
  9
$CELTSCALE
 40
1.0
  9
$DISPSILH
 70
     0
  9
$DIMSCALE
 40
1.0
  9
$DIMASZ
 40
1.799999999999999
  9
$DIMEXO
 40
0.0625
  9
$DIMDLI
 40
0.38
  9
$DIMRND
 40
0.0
  9
$DIMDLE
 40
0.0
  9
$DIMEXE
 40
0.18
  9
$DIMTP
 40
0.0
  9
$DIMTM
 40
0.0
  9
$DIMTXT
 40
0.3499999940395355
  9
$DIMCEN
 40
0.09
  9
$DIMTSZ
 40
0.0
  9
$DIMTOL
 70
     0
  9
$DIMLIM
 70
     0
  9
$DIMTIH
 70
     1
  9
$DIMTOH
 70
     1
  9
$DIMSE1
 70
     0
  9
$DIMSE2
 70
     0
  9
$DIMTAD
 70
     0
  9
$DIMZIN
 70
     0
  9
$DIMBLK
  1

  9
$DIMASO
 70
     1
  9
$DIMSHO
 70
     1
  9
$DIMPOST
  1

  9
$DIMAPOST
  1

  9
$DIMALT
 70
     0
  9
$DIMALTD
 70
     2
  9
$DIMALTF
 40
25.4
  9
$DIMLFAC
 40
1.0
  9
$DIMTOFL
 70
     0
  9
$DIMTVP
 40
0.0
  9
$DIMTIX
 70
     0
  9
$DIMSOXD
 70
     0
  9
$DIMSAH
 70
     0
  9
$DIMBLK1
  1

  9
$DIMBLK2
  1

  9
$DIMSTYLE
  2
Standard
  9
$DIMCLRD
 70
     0
  9
$DIMCLRE
 70
     0
  9
$DIMCLRT
 70
     0
  9
$DIMTFAC
 40
1.0
  9
$DIMGAP
 40
0.09
  9
$DIMJUST
 70
     0
  9
$DIMSD1
 70
     0
  9
$DIMSD2
 70
     0
  9
$DIMTOLJ
 70
     1
  9
$DIMTZIN
 70
     0
  9
$DIMALTZ
 70
     0
  9
$DIMALTTZ
 70
     0
  9
$DIMUPT
 70
     0
  9
$DIMDEC
 70
     4
  9
$DIMTDEC
 70
     4
  9
$DIMALTU
 70
     2
  9
$DIMALTTD
 70
     2
  9
$DIMTXSTY
  7
Standard
  9
$DIMAUNIT
 70
     0
  9
$DIMADEC
 70
     0
  9
$DIMALTRND
 40
0.0
  9
$DIMAZIN
 70
     0
  9
$DIMDSEP
 70
    46
  9
$DIMATFIT
 70
     3
  9
$DIMFRAC
 70
     0
  9
$DIMLDRBLK
  1

  9
$DIMLUNIT
 70
     2
  9
$DIMLWD
 70
    -2
  9
$DIMLWE
 70
    -2
  9
$DIMTMOVE
 70
     0
  9
$DIMFXL
 40
1.0
  9
$DIMFXLON
 70
     0
  9
$DIMJOGANG
 40
0.7853981633974483
  9
$DIMTFILL
 70
     0
  9
$DIMTFILLCLR
 70
     0
  9
$DIMARCSYM
 70
     0
  9
$DIMLTYPE
  6

  9
$DIMLTEX1
  6

  9
$DIMLTEX2
  6

  9
$DIMTXTDIRECTION
 70
     0
  9
$LUNITS
 70
     2
  9
$LUPREC
 70
     4
  9
$SKETCHINC
 40
0.1
  9
$FILLETRAD
 40
0.0
  9
$AUNITS
 70
     0
  9
$AUPREC
 70
     0
  9
$MENU
  1
.
  9
$ELEVATION
 40
0.0
  9
$PELEVATION
 40
0.0
  9
$THICKNESS
 40
0.0
  9
$LIMCHECK
 70
     0
  9
$CHAMFERA
 40
0.0
  9
$CHAMFERB
 40
0.0
  9
$CHAMFERC
 40
0.0
  9
$CHAMFERD
 40
0.0
  9
$SKPOLY
 70
     0
  9
$TDCREATE
 40
2457350.544086562
  9
$TDUCREATE
 40
2457350.502419896
  9
$TDUPDATE
 40
2457350.544086562
  9
$TDUUPDATE
 40
2457350.502419896
  9
$TDINDWG
 40
0.0000157755
  9
$TDUSRTIMER
 40
0.0000157755
  9
$USRTIMER
 70
     1
  9
$ANGBASE
 50
0.0
  9
$ANGDIR
 70
     0
  9
$PDMODE
 70
     0
  9
$PDSIZE
 40
0.0
  9
$PLINEWID
 40
0.0
  9
$SPLFRAME
 70
     0
  9
$SPLINETYPE
 70
     6
  9
$SPLINESEGS
 70
     8
  9
$HANDSEED
  5
79D
  9
$SURFTAB1
 70
     6
  9
$SURFTAB2
 70
     6
  9
$SURFTYPE
 70
     6
  9
$SURFU
 70
     6
  9
$SURFV
 70
     6
  9
$UCSBASE
  2

  9
$UCSNAME
  2

  9
$UCSORG
 10
0.0
 20
0.0
 30
0.0
  9
$UCSXDIR
 10
1.0
 20
0.0
 30
0.0
  9
$UCSYDIR
 10
0.0
 20
1.0
 30
0.0
  9
$UCSORTHOREF
  2

  9
$UCSORTHOVIEW
 70
     0
  9
$UCSORGTOP
 10
0.0
 20
0.0
 30
0.0
  9
$UCSORGBOTTOM
 10
0.0
 20
0.0
 30
0.0
  9
$UCSORGLEFT
 10
0.0
 20
0.0
 30
0.0
  9
$UCSORGRIGHT
 10
0.0
 20
0.0
 30
0.0
  9
$UCSORGFRONT
 10
0.0
 20
0.0
 30
0.0
  9
$UCSORGBACK
 10
0.0
 20
0.0
 30
0.0
  9
$PUCSBASE
  2

  9
$PUCSNAME
  2

  9
$PUCSORG
 10
0.0
 20
0.0
 30
0.0
  9
$PUCSXDIR
 10
1.0
 20
0.0
 30
0.0
  9
$PUCSYDIR
 10
0.0
 20
1.0
 30
0.0
  9
$PUCSORTHOREF
  2

  9
$PUCSORTHOVIEW
 70
     0
  9
$PUCSORGTOP
 10
0.0
 20
0.0
 30
0.0
  9
$PUCSORGBOTTOM
 10
0.0
 20
0.0
 30
0.0
  9
$PUCSORGLEFT
 10
0.0
 20
0.0
 30
0.0
  9
$PUCSORGRIGHT
 10
0.0
 20
0.0
 30
0.0
  9
$PUCSORGFRONT
 10
0.0
 20
0.0
 30
0.0
  9
$PUCSORGBACK
 10
0.0
 20
0.0
 30
0.0
  9
$USERI1
 70
     0
  9
$USERI2
 70
     0
  9
$USERI3
 70
     0
  9
$USERI4
 70
     0
  9
$USERI5
 70
     0
  9
$USERR1
 40
0.0
  9
$USERR2
 40
0.0
  9
$USERR3
 40
0.0
  9
$USERR4
 40
0.0
  9
$USERR5
 40
0.0
  9
$WORLDVIEW
 70
     1
  9
$SHADEDGE
 70
     3
  9
$SHADEDIF
 70
    70
  9
$TILEMODE
 70
     1
  9
$MAXACTVP
 70
    64
  9
$PINSBASE
 10
0.0
 20
0.0
 30
0.0
  9
$PLIMCHECK
 70
     0
  9
$PEXTMIN
 10
0.0
 20
0.0
 30
0.0
  9
$PEXTMAX
 10
58.27113601742389
 20
25.66493688714363
 30
0.0
  9
$PLIMMIN
 10
0.0
 20
0.0
  9
$PLIMMAX
 10
58.27113601742389
 20
25.66493688714363
  9
$UNITMODE
 70
     0
  9
$VISRETAIN
 70
     1
  9
$PLINEGEN
 70
     0
  9
$PSLTSCALE
 70
     1
  9
$TREEDEPTH
 70
  3020
  9
$CMLSTYLE
  2
Standard
  9
$CMLJUST
 70
     0
  9
$CMLSCALE
 40
1.0
  9
$PROXYGRAPHICS
 70
     1
  9
$MEASUREMENT
 70
     1
  9
$CELWEIGHT
370
    -1
  9
$ENDCAPS
280
     0
  9
$JOINSTYLE
280
     0
  9
$LWDISPLAY
290
     0
  9
$INSUNITS
 70
     4
  9
$HYPERLINKBASE
  1

  9
$STYLESHEET
  1

  9
$XEDIT
290
     1
  9
$CEPSNTYPE
380
     0
  9
$PSTYLEMODE
290
     1
  9
$FINGERPRINTGUID
  2
{02BD03BD-9111-4E94-A8CA-801805B81261}
  9
$VERSIONGUID
  2
{D87B8FC4-B9A3-4A4F-8A79-D8AD3CF3279D}
  9
$EXTNAMES
290
     1
  9
$PSVPSCALE
 40
0.0
  9
$OLESTARTUP
290
     0
  9
$SORTENTS
280
   127
  9
$INDEXCTL
280
     0
  9
$HIDETEXT
280
     1
  9
$XCLIPFRAME
280
     2
  9
$HALOGAP
280
     0
  9
$OBSCOLOR
 70
   257
  9
$OBSLTYPE
280
     0
  9
$INTERSECTIONDISPLAY
280
     0
  9
$INTERSECTIONCOLOR
 70
   257
  9
$DIMASSOC
280
     1
  9
$PROJECTNAME
  1

  9
$CAMERADISPLAY
290
     0
  9
$LENSLENGTH
 40
50.0
  9
$CAMERAHEIGHT
 40
0.0
  9
$STEPSPERSEC
 40
2.0
  9
$STEPSIZE
 40
6.0
  9
$3DDWFPREC
 40
2.0
  9
$PSOLWIDTH
 40
0.25
  9
$PSOLHEIGHT
 40
4.0
  9
$LOFTANG1
 40
1.570796326794896
  9
$LOFTANG2
 40
1.570796326794896
  9
$LOFTMAG1
 40
0.0
  9
$LOFTMAG2
 40
0.0
  9
$LOFTPARAM
 70
     7
  9
$LOFTNORMALS
280
     1
  9
$LATITUDE
 40
37.795
  9
$LONGITUDE
 40
-122.394
  9
$NORTHDIRECTION
 40
0.0
  9
$TIMEZONE
 70
 -8000
  9
$LIGHTGLYPHDISPLAY
280
     1
  9
$TILEMODELIGHTSYNCH
280
     1
  9
$CMATERIAL
347
11
  9
$SOLIDHIST
280
     0
  9
$SHOWHIST
280
     1
  9
$DWFFRAME
280
     2
  9
$DGNFRAME
280
     0
  9
$REALWORLDSCALE
290
     1
  9
$INTERFERECOLOR
 62
     1
  9
$INTERFEREOBJVS
345
33
  9
$INTERFEREVPVS
346
30
  9
$CSHADOW
280
     0
  9
$SHADOWPLANELOCATION
 40
0.0
  0
ENDSEC
  0
SECTION
  2
CLASSES
  0
CLASS
  1
ACDBDICTIONARYWDFLT
  2
AcDbDictionaryWithDefault
  3
ObjectDBX Classes
 90
        0
 91
        1
280
     0
281
     0
  0
CLASS
  1
MATERIAL
  2
AcDbMaterial
  3
ObjectDBX Classes
 90
     1153
 91
        3
280
     0
281
     0
  0
CLASS
  1
VISUALSTYLE
  2
AcDbVisualStyle
  3
ObjectDBX Classes
 90
     4095
 91
       24
280
     0
281
     0
  0
CLASS
  1
SCALE
  2
AcDbScale
  3
ObjectDBX Classes
 90
     1153
 91
       17
280
     0
281
     0
  0
CLASS
  1
TABLESTYLE
  2
AcDbTableStyle
  3
ObjectDBX Classes
 90
     4095
 91
        1
280
     0
281
     0
  0
CLASS
  1
MLEADERSTYLE
  2
AcDbMLeaderStyle
  3
ACDB_MLEADERSTYLE_CLASS
 90
     4095
 91
        1
280
     0
281
     0
  0
CLASS
  1
ACDBSECTIONVIEWSTYLE
  2
AcDbSectionViewStyle
  3
ObjectDBX Classes
 90
     1025
 91
        1
280
     0
281
     0
  0
CLASS
  1
ACDBDETAILVIEWSTYLE
  2
AcDbDetailViewStyle
  3
ObjectDBX Classes
 90
     1025
 91
        1
280
     0
281
     0
  0
CLASS
  1
DICTIONARYVAR
  2
AcDbDictionaryVar
  3
ObjectDBX Classes
 90
        0
 91
        5
280
     0
281
     0
  0
CLASS
  1
CELLSTYLEMAP
  2
AcDbCellStyleMap
  3
ObjectDBX Classes
 90
     1152
 91
        1
280
     0
281
     0
  0
ENDSEC
  0
SECTION
  2
TABLES
  0
TABLE
  2
VPORT
  5
8
330
0
100
AcDbSymbolTable
 70
     1
  0
VPORT
  5
57
330
8
100
AcDbSymbolTableRecord
100
AcDbViewportTableRecord
  2
*Active
 70
     0
 10
0.0
 20
0.0
 11
1.0
 21
1.0
 12
29.13556800871195
 22
12.83246844357181
 13
0.0
 23
0.0
 14
1.0
 24
1.0
 15
0.0
 25
0.0
 16
0.0
 26
0.0
 36
1.0
 17
0.0
 27
0.0
 37
0.0
 40
25.66493688714363
 41
2.270457015875762
 42
50.0
 43
0.0
 44
0.0
 50
0.0
 51
0.0
 71
     0
 72
   100
 73
     1
 74
     1
 75
     0
 76
     0
 77
     0
 78
     0
281
     0
 65
     1
110
0.0
120
0.0
130
0.0
111
1.0
121
0.0
131
0.0
112
0.0
122
1.0
132
0.0
 79
     0
146
0.0
 60
     3
 61
     5
292
     1
282
     1
141
0.0
142
0.0
 63
   250
421
  3355443
  0
ENDTAB
  0
TABLE
  2
LTYPE
  5
5
330
0
100
AcDbSymbolTable
 70
    59
  0
LTYPE
  5
5B
330
5
100
AcDbSymbolTableRecord
100
AcDbLinetypeTableRecord
  2
ByBlock
 70
     0
  3

 72
    65
 73
     0
 40
0.0
  0
LTYPE
  5
5C
330
5
100
AcDbSymbolTableRecord
100
AcDbLinetypeTableRecord
  2
ByLayer
 70
     0
  3

 72
    65
 73
     0
 40
0.0
  0
LTYPE
  5
5D
330
5
100
AcDbSymbolTableRecord
100
AcDbLinetypeTableRecord
  2
Continuous
 70
     0
  3
Solid line
 72
    65
 73
     0
 40
0.0
  0
LTYPE
  5
78
330
5
100
AcDbSymbolTableRecord
100
AcDbLinetypeTableRecord
  2
Section_View_Lines
 70
     0
  3
Section View Lines
 72
    65
 73
     4
 40
0.8406
 49
0.6614
 74
     0
 49
-0.0827
 74
     0
 49
0.0138
 74
     0
 49
-0.0827
 74
     0
  0
LTYPE
  5
79
330
5
100
AcDbSymbolTableRecord
100
AcDbLinetypeTableRecord
  2
CHAIN
 70
     0
  3
Chain ____ _ ____ _ ____ _ ____ _ ____ _ ____
 72
    65
 73
     4
 40
0.3543
 49
0.2362
 74
     0
 49
-0.0295
 74
     0
 49
0.0591
 74
     0
 49
-0.0295
 74
     0
  0
LTYPE
  5
7A
330
5
100
AcDbSymbolTableRecord
100
AcDbLinetypeTableRecord
  2
DASH_DOT
 70
     0
  3
Dash dot _._._._._._._._._._._._._._._.
 72
    65
 73
     4
 40
0.37
 49
0.24
 74
     0
 49
-0.06
 74
     0
 49
0.01
 74
     0
 49
-0.06
 74
     0
  0
LTYPE
  5
7B
330
5
100
AcDbSymbolTableRecord
100
AcDbLinetypeTableRecord
  2
DASH_DOUBLE_DOT
 70
     0
  3
Dash Double Dot __ __ . __ __ . __ __ . __ _
 72
    65
 73
     6
 40
0.4398
 49
0.24
 74
     0
 49
-0.06
 74
     0
 49
0.0098
 74
     0
 49
-0.06
 74
     0
 49
0.01
 74
     0
 49
-0.06
 74
     0
  0
LTYPE
  5
7C
330
5
100
AcDbSymbolTableRecord
100
AcDbLinetypeTableRecord
  2
DASH_TRIPLE_DOT
 70
     0
  3
Dash Triple-Dot _ . . . _ . . . _ . . . _
 72
    65
 73
     8
 40
0.51
 49
0.24
 74
     0
 49
-0.06
 74
     0
 49
0.01
 74
     0
 49
-0.06
 74
     0
 49
0.01
 74
     0
 49
-0.06
 74
     0
 49
0.01
 74
     0
 49
-0.06
 74
     0
  0
LTYPE
  5
7D
330
5
100
AcDbSymbolTableRecord
100
AcDbLinetypeTableRecord
  2
DASHED
 70
     0
  3
Dashed __ __ __ __ __ __ __ __ __ __ __ __ __ _
 72
    65
 73
     2
 40
0.2067
 49
0.1654
 74
     0
 49
-0.0413
 74
     0
  0
LTYPE
  5
7E
330
5
100
AcDbSymbolTableRecord
100
AcDbLinetypeTableRecord
  2
DASHED_SPACE
 70
     0
  3
Dashed Space _._._._._._._._._._._._._._._.
 72
    65
 73
     2
 40
0.2067
 49
0.1654
 74
     0
 49
-0.0413
 74
     0
  0
LTYPE
  5
7F
330
5
100
AcDbSymbolTableRecord
100
AcDbLinetypeTableRecord
  2
DOTTED
 70
     0
  3
Dotted . . . . . . . . . . . . . . . . . . . . 
 72
    65
 73
     2
 40
0.0482
 49
0.0069
 74
     0
 49
-0.0413
 74
     0
  0
LTYPE
  5
80
330
5
100
AcDbSymbolTableRecord
100
AcDbLinetypeTableRecord
  2
DOUBLE_DASH_CHAIN
 70
     0
  3
Double Dash Chain ___ _ _ ___ _ _ ___ _ _ ___ _
 72
    65
 73
     6
 40
1.240299999999999
 49
0.6614
 74
     0
 49
-0.0827
 74
     0
 49
0.1654
 74
     0
 49
-0.0827
 74
     0
 49
0.1654
 74
     0
 49
-0.0827
 74
     0
  0
LTYPE
  5
81
330
5
100
AcDbSymbolTableRecord
100
AcDbLinetypeTableRecord
  2
DOUBLE_DASH_DOT
 70
     0
  3
Double Dash Dot __ __ . __ __ . __ __ . __ _
 72
    65
 73
     6
 40
0.67
 49
0.24
 74
     0
 49
-0.06
 74
     0
 49
0.24
 74
     0
 49
-0.06
 74
     0
 49
0.01
 74
     0
 49
-0.06
 74
     0
  0
LTYPE
  5
82
330
5
100
AcDbSymbolTableRecord
100
AcDbLinetypeTableRecord
  2
DOUBLE_DASH_DOUBLE_DOT
 70
     0
  3
Double-dash double-dot _ _ . . _ _ . . _
 72
    65
 73
     8
 40
0.7400000000000001
 49
0.24
 74
     0
 49
-0.06
 74
     0
 49
0.24
 74
     0
 49
-0.06
 74
     0
 49
0.01
 74
     0
 49
-0.06
 74
     0
 49
0.01
 74
     0
 49
-0.06
 74
     0
  0
LTYPE
  5
83
330
5
100
AcDbSymbolTableRecord
100
AcDbLinetypeTableRecord
  2
DOUBLE_DASH_TRIPLE_DOT
 70
     0
  3
Double Dash Triple Dot __ __ . . . __ __ . . .
 72
    65
 73
    10
 40
0.8100000000000001
 49
0.24
 74
     0
 49
-0.06
 74
     0
 49
0.24
 74
     0
 49
-0.06
 74
     0
 49
0.01
 74
     0
 49
-0.06
 74
     0
 49
0.01
 74
     0
 49
-0.06
 74
     0
 49
0.01
 74
     0
 49
-0.06
 74
     0
  0
LTYPE
  5
84
330
5
100
AcDbSymbolTableRecord
100
AcDbLinetypeTableRecord
  2
LONG_DASH_DOTTED
 70
     0
  3
Long-Dash Dot ____ . ____ . ____ . ____ . _
 72
    65
 73
     4
 40
0.3001
 49
0.2362
 74
     0
 49
-0.0295
 74
     0
 49
0.0049
 74
     0
 49
-0.0295
 74
     0
  0
LTYPE
  5
85
330
5
100
AcDbSymbolTableRecord
100
AcDbLinetypeTableRecord
  2
LONG_DASH_DOUBLE_DOT
 70
     0
  3
Long Dash Double Dot ____ . . ____ . . ____ . .
 72
    65
 73
     6
 40
0.3345
 49
0.2362
 74
     0
 49
-0.0295
 74
     0
 49
0.0049
 74
     0
 49
-0.0295
 74
     0
 49
0.0049
 74
     0
 49
-0.0295
 74
     0
  0
LTYPE
  5
86
330
5
100
AcDbSymbolTableRecord
100
AcDbLinetypeTableRecord
  2
LONG_DASH_TRIPLE_DOT
 70
     0
  3
Long Dash Triple Dot ____ ... ____ ... ____
 72
    65
 73
     8
 40
0.75
 49
0.48
 74
     0
 49
-0.06
 74
     0
 49
0.01
 74
     0
 49
-0.06
 74
     0
 49
0.01
 74
     0
 49
-0.06
 74
     0
 49
0.01
 74
     0
 49
-0.06
 74
     0
  0
LTYPE
  5
87
330
5
100
AcDbSymbolTableRecord
100
AcDbLinetypeTableRecord
  2
BORDER
 70
     0
  3
Border __ __ . __ __ . __ __ . __ __ . __ __ .
 72
    65
 73
     6
 40
44.45
 49
12.7
 74
     0
 49
-6.349999999999999
 74
     0
 49
12.7
 74
     0
 49
-6.349999999999999
 74
     0
 49
0.0
 74
     0
 49
-6.349999999999999
 74
     0
  0
LTYPE
  5
88
330
5
100
AcDbSymbolTableRecord
100
AcDbLinetypeTableRecord
  2
BORDER2
 70
     0
  3
Border (.5x) __.__.__.__.__.__.__.__.__.__.__.
 72
    65
 73
     6
 40
22.225
 49
6.349999999999999
 74
     0
 49
-3.174999999999999
 74
     0
 49
6.349999999999999
 74
     0
 49
-3.174999999999999
 74
     0
 49
0.0
 74
     0
 49
-3.174999999999999
 74
     0
  0
LTYPE
  5
89
330
5
100
AcDbSymbolTableRecord
100
AcDbLinetypeTableRecord
  2
BORDERX2
 70
     0
  3
Border (2x) ____  ____  .  ____  ____  .  ___
 72
    65
 73
     6
 40
88.9
 49
25.4
 74
     0
 49
-12.7
 74
     0
 49
25.4
 74
     0
 49
-12.7
 74
     0
 49
0.0
 74
     0
 49
-12.7
 74
     0
  0
LTYPE
  5
8A
330
5
100
AcDbSymbolTableRecord
100
AcDbLinetypeTableRecord
  2
CENTER
 70
     0
  3
Center ____ _ ____ _ ____ _ ____ _ ____ _ ____
 72
    65
 73
     4
 40
50.8
 49
31.75
 74
     0
 49
-6.349999999999999
 74
     0
 49
6.349999999999999
 74
     0
 49
-6.349999999999999
 74
     0
  0
LTYPE
  5
8B
330
5
100
AcDbSymbolTableRecord
100
AcDbLinetypeTableRecord
  2
CENTER2
 70
     0
  3
Center (.5x) ___ _ ___ _ ___ _ ___ _ ___ _ ___
 72
    65
 73
     4
 40
28.575
 49
19.05
 74
     0
 49
-3.174999999999999
 74
     0
 49
3.174999999999999
 74
     0
 49
-3.174999999999999
 74
     0
  0
LTYPE
  5
8C
330
5
100
AcDbSymbolTableRecord
100
AcDbLinetypeTableRecord
  2
CENTERX2
 70
     0
  3
Center (2x) ________  __  ________  __  _____
 72
    65
 73
     4
 40
101.6
 49
63.5
 74
     0
 49
-12.7
 74
     0
 49
12.7
 74
     0
 49
-12.7
 74
     0
  0
LTYPE
  5
8D
330
5
100
AcDbSymbolTableRecord
100
AcDbLinetypeTableRecord
  2
DASHDOT2
 70
     0
  3
Dash dot (.5x) _._._._._._._._._._._._._._._.
 72
    65
 73
     4
 40
12.7
 49
6.349999999999999
 74
     0
 49
-3.174999999999999
 74
     0
 49
0.0
 74
     0
 49
-3.174999999999999
 74
     0
  0
LTYPE
  5
8E
330
5
100
AcDbSymbolTableRecord
100
AcDbLinetypeTableRecord
  2
DASHDOTX2
 70
     0
  3
Dash dot (2x) ____  .  ____  .  ____  .  ___
 72
    65
 73
     4
 40
50.8
 49
25.4
 74
     0
 49
-12.7
 74
     0
 49
0.0
 74
     0
 49
-12.7
 74
     0
  0
LTYPE
  5
8F
330
5
100
AcDbSymbolTableRecord
100
AcDbLinetypeTableRecord
  2
DASHED2
 70
     0
  3
Dashed (.5x) _ _ _ _ _ _ _ _ _ _ _ _ _ _ _ _ _
 72
    65
 73
     2
 40
9.524999999999998
 49
6.349999999999999
 74
     0
 49
-3.174999999999999
 74
     0
  0
LTYPE
  5
90
330
5
100
AcDbSymbolTableRecord
100
AcDbLinetypeTableRecord
  2
DASHEDX2
 70
     0
  3
Dashed (2x) ____  ____  ____  ____  ____  ___
 72
    65
 73
     2
 40
38.1
 49
25.4
 74
     0
 49
-12.7
 74
     0
  0
LTYPE
  5
91
330
5
100
AcDbSymbolTableRecord
100
AcDbLinetypeTableRecord
  2
DIVIDE
 70
     0
  3
Divide ____ . . ____ . . ____ . . ____ . . ____
 72
    65
 73
     6
 40
31.75
 49
12.7
 74
     0
 49
-6.349999999999999
 74
     0
 49
0.0
 74
     0
 49
-6.349999999999999
 74
     0
 49
0.0
 74
     0
 49
-6.349999999999999
 74
     0
  0
LTYPE
  5
92
330
5
100
AcDbSymbolTableRecord
100
AcDbLinetypeTableRecord
  2
DIVIDE2
 70
     0
  3
Divide (.5x) __..__..__..__..__..__..__..__.._
 72
    65
 73
     6
 40
15.875
 49
6.349999999999999
 74
     0
 49
-3.174999999999999
 74
     0
 49
0.0
 74
     0
 49
-3.174999999999999
 74
     0
 49
0.0
 74
     0
 49
-3.174999999999999
 74
     0
  0
LTYPE
  5
93
330
5
100
AcDbSymbolTableRecord
100
AcDbLinetypeTableRecord
  2
DIVIDEX2
 70
     0
  3
Divide (2x) ________  .  .  ________  .  .  _
 72
    65
 73
     6
 40
63.49999999999999
 49
25.4
 74
     0
 49
-12.7
 74
     0
 49
0.0
 74
     0
 49
-12.7
 74
     0
 49
0.0
 74
     0
 49
-12.7
 74
     0
  0
LTYPE
  5
94
330
5
100
AcDbSymbolTableRecord
100
AcDbLinetypeTableRecord
  2
DOT
 70
     0
  3
Dot . . . . . . . . . . . . . . . . . . . . . .
 72
    65
 73
     2
 40
6.349999999999999
 49
0.0
 74
     0
 49
-6.349999999999999
 74
     0
  0
LTYPE
  5
95
330
5
100
AcDbSymbolTableRecord
100
AcDbLinetypeTableRecord
  2
DOT2
 70
     0
  3
Dot (.5x) .....................................
 72
    65
 73
     2
 40
3.174999999999999
 49
0.0
 74
     0
 49
-3.174999999999999
 74
     0
  0
LTYPE
  5
96
330
5
100
AcDbSymbolTableRecord
100
AcDbLinetypeTableRecord
  2
DOTX2
 70
     0
  3
Dot (2x) .  .  .  .  .  .  .  .  .  .  .  .  . 
 72
    65
 73
     2
 40
12.7
 49
0.0
 74
     0
 49
-12.7
 74
     0
  0
LTYPE
  5
97
330
5
100
AcDbSymbolTableRecord
100
AcDbLinetypeTableRecord
  2
HIDDEN
 70
     0
  3
Hidden __ __ __ __ __ __ __ __ __ __ __ __ __ _
 72
    65
 73
     2
 40
9.524999999999998
 49
6.349999999999999
 74
     0
 49
-3.174999999999999
 74
     0
  0
LTYPE
  5
98
330
5
100
AcDbSymbolTableRecord
100
AcDbLinetypeTableRecord
  2
HIDDEN2
 70
     0
  3
Hidden (.5x) _ _ _ _ _ _ _ _ _ _ _ _ _ _ _ _ _
 72
    65
 73
     2
 40
4.762499999999999
 49
3.174999999999999
 74
     0
 49
-1.587499999999999
 74
     0
  0
LTYPE
  5
99
330
5
100
AcDbSymbolTableRecord
100
AcDbLinetypeTableRecord
  2
HIDDENX2
 70
     0
  3
Hidden (2x) ____ ____ ____ ____ ____ ____ ____
 72
    65
 73
     2
 40
19.05
 49
12.7
 74
     0
 49
-6.349999999999999
 74
     0
  0
LTYPE
  5
9A
330
5
100
AcDbSymbolTableRecord
100
AcDbLinetypeTableRecord
  2
PHANTOM
 70
     0
  3
Phantom ______  __  __  ______  __  __  ______
 72
    65
 73
     6
 40
63.5
 49
31.75
 74
     0
 49
-6.349999999999999
 74
     0
 49
6.349999999999999
 74
     0
 49
-6.349999999999999
 74
     0
 49
6.349999999999999
 74
     0
 49
-6.349999999999999
 74
     0
  0
LTYPE
  5
9B
330
5
100
AcDbSymbolTableRecord
100
AcDbLinetypeTableRecord
  2
PHANTOM2
 70
     0
  3
Phantom (.5x) ___ _ _ ___ _ _ ___ _ _ ___ _ _
 72
    65
 73
     6
 40
31.75
 49
15.875
 74
     0
 49
-3.174999999999999
 74
     0
 49
3.174999999999999
 74
     0
 49
-3.174999999999999
 74
     0
 49
3.174999999999999
 74
     0
 49
-3.174999999999999
 74
     0
  0
LTYPE
  5
9C
330
5
100
AcDbSymbolTableRecord
100
AcDbLinetypeTableRecord
  2
PHANTOMX2
 70
     0
  3
Phantom (2x) ____________    ____    ____   _
 72
    65
 73
     6
 40
127.0
 49
63.5
 74
     0
 49
-12.7
 74
     0
 49
12.7
 74
     0
 49
-12.7
 74
     0
 49
12.7
 74
     0
 49
-12.7
 74
     0
  0
LTYPE
  5
9D
330
5
100
AcDbSymbolTableRecord
100
AcDbLinetypeTableRecord
  2
ACAD_ISO02W100
 70
     0
  3
ISO dash __ __ __ __ __ __ __ __ __ __ __ __ __
 72
    65
 73
     2
 40
15.0
 49
12.0
 74
     0
 49
-3.0
 74
     0
  0
LTYPE
  5
9E
330
5
100
AcDbSymbolTableRecord
100
AcDbLinetypeTableRecord
  2
ACAD_ISO03W100
 70
     0
  3
ISO dash space __    __    __    __    __    __
 72
    65
 73
     2
 40
30.0
 49
12.0
 74
     0
 49
-18.0
 74
     0
  0
LTYPE
  5
9F
330
5
100
AcDbSymbolTableRecord
100
AcDbLinetypeTableRecord
  2
ACAD_ISO04W100
 70
     0
  3
ISO long-dash dot ____ . ____ . ____ . ____ . _
 72
    65
 73
     4
 40
30.0
 49
24.0
 74
     0
 49
-3.0
 74
     0
 49
0.0
 74
     0
 49
-3.0
 74
     0
  0
LTYPE
  5
A0
330
5
100
AcDbSymbolTableRecord
100
AcDbLinetypeTableRecord
  2
ACAD_ISO05W100
 70
     0
  3
ISO long-dash double-dot ____ .. ____ .. ____ .
 72
    65
 73
     6
 40
33.0
 49
24.0
 74
     0
 49
-3.0
 74
     0
 49
0.0
 74
     0
 49
-3.0
 74
     0
 49
0.0
 74
     0
 49
-3.0
 74
     0
  0
LTYPE
  5
A1
330
5
100
AcDbSymbolTableRecord
100
AcDbLinetypeTableRecord
  2
ACAD_ISO06W100
 70
     0
  3
ISO long-dash triple-dot ____ ... ____ ... ____
 72
    65
 73
     8
 40
36.0
 49
24.0
 74
     0
 49
-3.0
 74
     0
 49
0.0
 74
     0
 49
-3.0
 74
     0
 49
0.0
 74
     0
 49
-3.0
 74
     0
 49
0.0
 74
     0
 49
-3.0
 74
     0
  0
LTYPE
  5
A2
330
5
100
AcDbSymbolTableRecord
100
AcDbLinetypeTableRecord
  2
ACAD_ISO07W100
 70
     0
  3
ISO dot . . . . . . . . . . . . . . . . . . . .
 72
    65
 73
     2
 40
3.0
 49
0.0
 74
     0
 49
-3.0
 74
     0
  0
LTYPE
  5
A3
330
5
100
AcDbSymbolTableRecord
100
AcDbLinetypeTableRecord
  2
ACAD_ISO08W100
 70
     0
  3
ISO long-dash short-dash ____ __ ____ __ ____ _
 72
    65
 73
     4
 40
36.0
 49
24.0
 74
     0
 49
-3.0
 74
     0
 49
6.0
 74
     0
 49
-3.0
 74
     0
  0
LTYPE
  5
A4
330
5
100
AcDbSymbolTableRecord
100
AcDbLinetypeTableRecord
  2
ACAD_ISO09W100
 70
     0
  3
ISO long-dash double-short-dash ____ __ __ ____
 72
    65
 73
     6
 40
45.0
 49
24.0
 74
     0
 49
-3.0
 74
     0
 49
6.0
 74
     0
 49
-3.0
 74
     0
 49
6.0
 74
     0
 49
-3.0
 74
     0
  0
LTYPE
  5
A5
330
5
100
AcDbSymbolTableRecord
100
AcDbLinetypeTableRecord
  2
ACAD_ISO10W100
 70
     0
  3
ISO dash dot __ . __ . __ . __ . __ . __ . __ .
 72
    65
 73
     4
 40
18.0
 49
12.0
 74
     0
 49
-3.0
 74
     0
 49
0.0
 74
     0
 49
-3.0
 74
     0
  0
LTYPE
  5
A6
330
5
100
AcDbSymbolTableRecord
100
AcDbLinetypeTableRecord
  2
ACAD_ISO11W100
 70
     0
  3
ISO double-dash dot __ __ . __ __ . __ __ . __ 
 72
    65
 73
     6
 40
33.0
 49
12.0
 74
     0
 49
-3.0
 74
     0
 49
12.0
 74
     0
 49
-3.0
 74
     0
 49
0.0
 74
     0
 49
-3.0
 74
     0
  0
LTYPE
  5
A7
330
5
100
AcDbSymbolTableRecord
100
AcDbLinetypeTableRecord
  2
ACAD_ISO12W100
 70
     0
  3
ISO dash double-dot __ . . __ . . __ . . __ . .
 72
    65
 73
     6
 40
21.0
 49
12.0
 74
     0
 49
-3.0
 74
     0
 49
0.0
 74
     0
 49
-3.0
 74
     0
 49
0.0
 74
     0
 49
-3.0
 74
     0
  0
LTYPE
  5
A8
330
5
100
AcDbSymbolTableRecord
100
AcDbLinetypeTableRecord
  2
ACAD_ISO13W100
 70
     0
  3
ISO double-dash double-dot __ __ . . __ __ . . 
 72
    65
 73
     8
 40
36.0
 49
12.0
 74
     0
 49
-3.0
 74
     0
 49
12.0
 74
     0
 49
-3.0
 74
     0
 49
0.0
 74
     0
 49
-3.0
 74
     0
 49
0.0
 74
     0
 49
-3.0
 74
     0
  0
LTYPE
  5
A9
330
5
100
AcDbSymbolTableRecord
100
AcDbLinetypeTableRecord
  2
ACAD_ISO14W100
 70
     0
  3
ISO dash triple-dot __ . . . __ . . . __ . . . 
 72
    65
 73
     8
 40
24.0
 49
12.0
 74
     0
 49
-3.0
 74
     0
 49
0.0
 74
     0
 49
-3.0
 74
     0
 49
0.0
 74
     0
 49
-3.0
 74
     0
 49
0.0
 74
     0
 49
-3.0
 74
     0
  0
LTYPE
  5
AA
330
5
100
AcDbSymbolTableRecord
100
AcDbLinetypeTableRecord
  2
ACAD_ISO15W100
 70
     0
  3
ISO double-dash triple-dot __ __ . . . __ __ . 
 72
    65
 73
    10
 40
39.0
 49
12.0
 74
     0
 49
-3.0
 74
     0
 49
12.0
 74
     0
 49
-3.0
 74
     0
 49
0.0
 74
     0
 49
-3.0
 74
     0
 49
0.0
 74
     0
 49
-3.0
 74
     0
 49
0.0
 74
     0
 49
-3.0
 74
     0
  0
LTYPE
  5
AD
330
5
100
AcDbSymbolTableRecord
100
AcDbLinetypeTableRecord
  2
FENCELINE1
 70
     0
  3
Fenceline circle ----0-----0----0-----0----0---
 72
    65
 73
     4
 40
36.83
 49
6.349999999999999
 74
     0
 49
-2.54
 74
     4
 75
   133
340
AC
 46
2.54
 50
0.0
 44
-2.54
 45
0.0
 49
-2.54
 74
     0
 49
25.4
 74
     0
  0
LTYPE
  5
AE
330
5
100
AcDbSymbolTableRecord
100
AcDbLinetypeTableRecord
  2
FENCELINE2
 70
     0
  3
Fenceline square ----[]-----[]----[]-----[]----
 72
    65
 73
     4
 40
36.83
 49
6.349999999999999
 74
     0
 49
-2.54
 74
     4
 75
   132
340
AC
 46
2.54
 50
0.0
 44
-2.54
 45
0.0
 49
-2.54
 74
     0
 49
25.4
 74
     0
  0
LTYPE
  5
AF
330
5
100
AcDbSymbolTableRecord
100
AcDbLinetypeTableRecord
  2
TRACKS
 70
     0
  3
Tracks -|-|-|-|-|-|-|-|-|-|-|-|-|-|-|-|-|-|-|-|
 72
    65
 73
     2
 40
7.62
 49
3.81
 74
     4
 75
   130
340
AC
 46
6.349999999999999
 50
0.0
 44
0.0
 45
0.0
 49
3.81
 74
     0
  0
LTYPE
  5
B0
330
5
100
AcDbSymbolTableRecord
100
AcDbLinetypeTableRecord
  2
BATTING
 70
     0
  3
Batting SSSSSSSSSSSSSSSSSSSSSSSSSSSSSSSSSSSSSSS
 72
    65
 73
     4
 40
10.16254
 49
0.00254
 74
     0
 49
-2.54
 74
     4
 75
   134
340
AC
 46
2.54
 50
0.0
 44
-2.54
 45
0.0
 49
-5.08
 74
     4
 75
   134
340
AC
 46
2.54
 50
180.0
 44
2.54
 45
0.0
 49
-2.54
 74
     0
  0
LTYPE
  5
B1
330
5
100
AcDbSymbolTableRecord
100
AcDbLinetypeTableRecord
  2
HOT_WATER_SUPPLY
 70
     0
  3
Hot water supply ---- HW ---- HW ---- HW ----
 72
    65
 73
     3
 40
22.86
 49
12.7
 74
     0
 49
-5.08
 74
     2
 75
     0
340
55
 46
2.54
 50
0.0
 44
-2.54
 45
-1.27
  9
HW
 49
-5.08
 74
     0
  0
LTYPE
  5
B2
330
5
100
AcDbSymbolTableRecord
100
AcDbLinetypeTableRecord
  2
GAS_LINE
 70
     0
  3
Gas line ----GAS----GAS----GAS----GAS----GAS---
 72
    65
 73
     3
 40
24.13
 49
12.7
 74
     0
 49
-5.08
 74
     2
 75
     0
340
55
 46
2.54
 50
0.0
 44
-2.54
 45
-1.27
  9
GAS
 49
-6.349999999999999
 74
     0
  0
LTYPE
  5
B3
330
5
100
AcDbSymbolTableRecord
100
AcDbLinetypeTableRecord
  2
ZIGZAG
 70
     0
  3
Zig zag /\/\/\/\/\/\/\/\/\/\/\/\/\/\/\/\/\/\/\/
 72
    65
 73
     4
 40
20.32254
 49
0.00254
 74
     0
 49
-5.08
 74
     4
 75
   131
340
AC
 46
5.08
 50
0.0
 44
-5.08
 45
0.0
 49
-10.16
 74
     4
 75
   131
340
AC
 46
5.08
 50
180.0
 44
5.08
 45
0.0
 49
-5.08
 74
     0
  0
ENDTAB
  0
TABLE
  2
LAYER
  5
2
330
0
100
AcDbSymbolTable
 70
    58
  0
LAYER
  5
54
330
2
100
AcDbSymbolTableRecord
100
AcDbLayerTableRecord
  2
0
 70
     0
 62
     7
  6
Continuous
370
    25
390
F
347
21
348
0
  0
LAYER
  5
BC
330
2
100
AcDbSymbolTableRecord
100
AcDbLayerTableRecord
  2
Bemaßung (ISO)
 70
     0
 62
     7
  6
Continuous
370
    25
390
F
347
21
348
0
  0
LAYER
  5
CA
330
2
100
AcDbSymbolTableRecord
100
AcDbLayerTableRecord
  2
Mittellinie (ISO)
 70
     0
 62
     7
  6
Continuous
370
    25
390
F
347
21
348
0
  0
LAYER
  5
CC
330
2
100
AcDbSymbolTableRecord
100
AcDbLayerTableRecord
  2
Mittelpunktmarkierung (ISO)
 70
     0
 62
     7
  6
Continuous
370
    25
390
F
347
21
348
0
  0
LAYER
  5
D5
330
2
100
AcDbSymbolTableRecord
100
AcDbLayerTableRecord
  2
Schnittlinie (ISO)
 70
     0
 62
     7
  6
Continuous
370
    70
390
F
347
21
348
0
  0
LAYER
  5
D7
330
2
100
AcDbSymbolTableRecord
100
AcDbLayerTableRecord
  2
Schraffur (ISO)
 70
     0
 62
     7
  6
Continuous
370
    18
390
F
347
21
348
0
  0
LAYER
  5
D8
330
2
100
AcDbSymbolTableRecord
100
AcDbLayerTableRecord
  2
Sichtbar (ISO)
 70
     0
 62
     7
  6
Continuous
370
    50
390
F
347
21
348
0
  0
LAYER
  5
D9
330
2
100
AcDbSymbolTableRecord
100
AcDbLayerTableRecord
  2
Sichtbar schmal (ISO)
 70
     0
 62
     7
  6
Continuous
370
    35
390
F
347
21
348
0
  0
LAYER
  5
DC
330
2
100
AcDbSymbolTableRecord
100
AcDbLayerTableRecord
  2
Skizziergeometrie (ISO)
 70
     0
 62
     7
  6
Continuous
370
    25
390
F
347
21
348
0
  0
LAYER
  5
E1
330
2
100
AcDbSymbolTableRecord
100
AcDbLayerTableRecord
  2
Symbol (ISO)
 70
     0
 62
     7
  6
Continuous
370
    25
390
F
347
21
348
0
  0
LAYER
  5
36D
330
2
100
AcDbSymbolTableRecord
100
AcDbLayerTableRecord
  2
Defpoints
 70
     0
 62
     7
  6
Continuous
290
     0
370
    -3
390
F
347
21
348
0
  0
ENDTAB
  0
TABLE
  2
STYLE
  5
3
330
0
100
AcDbSymbolTable
 70
    51
  0
STYLE
  5
55
330
3
100
AcDbSymbolTableRecord
100
AcDbTextStyleTableRecord
  2
Standard
 70
     0
 40
0.0
 41
1.0
 50
0.0
 71
     0
 42
0.2
  3
isocpeur.ttf
  4

1001
ACAD
1000
ISOCPEUR
1071
      256
  0
STYLE
  5
5A
330
3
100
AcDbSymbolTableRecord
100
AcDbTextStyleTableRecord
  2
Annotative
 70
     0
 40
0.0
 41
1.0
 50
0.0
 71
     0
 42
0.2
  3
txt
  4

1001
AcadAnnotative
1000
AnnotativeData
1002
{
1070
     1
1070
     1
1002
}
  0
STYLE
  5
AC
330
3
100
AcDbSymbolTableRecord
100
AcDbTextStyleTableRecord
  2

 70
     1
 40
0.0
 41
1.0
 50
0.0
 71
     0
 42
0.2
  3
ltypeshp.shx
  4

  0
STYLE
  5
EC
330
3
100
AcDbSymbolTableRecord
100
AcDbTextStyleTableRecord
  2
Aktuell-DIN
 70
     0
 40
0.0
 41
1.0
 50
0.0
 71
     0
 42
0.2
  3
arial.ttf
  4

1001
ACAD
1000
Arial
1071
      256
  0
STYLE
  5
ED
330
3
100
AcDbSymbolTableRecord
100
AcDbTextStyleTableRecord
  2
Aktuell-DINGroßer Text
 70
     0
 40
0.0
 41
1.0
 50
0.0
 71
     0
 42
0.2
  3
arial.ttf
  4

1001
ACAD
1000
Arial
1071
      256
  0
STYLE
  5
EE
330
3
100
AcDbSymbolTableRecord
100
AcDbTextStyleTableRecord
  2
Aktuell-DINGroßer TextSTANDARD-DINGroßer Text$7
 70
     0
 40
0.0
 41
1.0
 50
0.0
 71
     0
 42
0.2
  3
arial.ttf
  4

1001
ACAD
1000
Arial
1071
      256
  0
STYLE
  5
EF
330
3
100
AcDbSymbolTableRecord
100
AcDbTextStyleTableRecord
  2
Aktuell-DINNach Layer
 70
     0
 40
0.0
 41
1.0
 50
0.0
 71
     0
 42
0.2
  3
arial.ttf
  4

1001
ACAD
1000
Arial
1071
      256
  0
STYLE
  5
F0
330
3
100
AcDbSymbolTableRecord
100
AcDbTextStyleTableRecord
  2
Bezeichnungstext (DIN)
 70
     0
 40
0.0
 41
1.0
 50
0.0
 71
     0
 42
0.2
  3
isocpeur.ttf
  4

1001
ACAD
1000
ISOCPEUR
1071
      256
  0
STYLE
  5
F1
330
3
100
AcDbSymbolTableRecord
100
AcDbTextStyleTableRecord
  2
Notiztext (DIN)
 70
     0
 40
0.0
 41
1.0
 50
0.0
 71
     0
 42
0.2
  3
isocpeur.ttf
  4

1001
ACAD
1000
ISOCPEUR
1071
      256
  0
STYLE
  5
F2
330
3
100
AcDbSymbolTableRecord
100
AcDbTextStyleTableRecord
  2
Notiztext (DIN)Durchmesser (DIN)$7
 70
     0
 40
0.0
 41
1.0
 50
0.0
 71
     0
 42
0.2
  3
isocpeur.ttf
  4

1001
ACAD
1000
ISOCPEUR
1071
      256
  0
STYLE
  5
F3
330
3
100
AcDbSymbolTableRecord
100
AcDbTextStyleTableRecord
  2
Notiztext (DIN)Standard - Methode 2a (DIN)$7
 70
     0
 40
0.0
 41
1.0
 50
0.0
 71
     0
 42
0.2
  3
isocpeur.ttf
  4

1001
ACAD
1000
ISOCPEUR
1071
      256
  0
STYLE
  5
F4
330
3
100
AcDbSymbolTableRecord
100
AcDbTextStyleTableRecord
  2
Notiztext (DIN)Standard - Methode 2b (DIN)$7
 70
     0
 40
0.0
 41
1.0
 50
0.0
 71
     0
 42
0.2
  3
isocpeur.ttf
  4

1001
ACAD
1000
ISOCPEUR
1071
      256
  0
STYLE
  5
F5
330
3
100
AcDbSymbolTableRecord
100
AcDbTextStyleTableRecord
  2
Notiztext (DIN)Standard (DIN)$7
 70
     0
 40
0.0
 41
1.0
 50
0.0
 71
     0
 42
0.2
  3
isocpeur.ttf
  4

1001
ACAD
1000
ISOCPEUR
1071
      256
  0
STYLE
  5
F6
330
3
100
AcDbSymbolTableRecord
100
AcDbTextStyleTableRecord
  2
STANDARD-BSI~0
 70
     0
 40
0.0
 41
1.0
 50
0.0
 71
     0
 42
0.2
  3
arial.ttf
  4

1001
ACAD
1000
Arial
1071
      256
  0
STYLE
  5
F7
330
3
100
AcDbSymbolTableRecord
100
AcDbTextStyleTableRecord
  2
STANDARD-BSI~0STANDARD-DIN$7
 70
     0
 40
0.0
 41
1.0
 50
0.0
 71
     0
 42
0.2
  3
arial.ttf
  4

1001
ACAD
1000
Arial
1071
      256
  0
STYLE
  5
F8
330
3
100
AcDbSymbolTableRecord
100
AcDbTextStyleTableRecord
  2
StandardAlternativ (ISO)
 70
     0
 40
0.0
 41
1.0
 50
0.0
 71
     0
 42
0.2
  3
isocpeur.ttf
  4

1001
ACAD
1000
ISOCPEUR
1071
      256
  0
STYLE
  5
F9
330
3
100
AcDbSymbolTableRecord
100
AcDbTextStyleTableRecord
  2
StandardAnnotative
 70
     0
 40
0.0
 41
1.0
 50
0.0
 71
     0
 42
0.2
  3
isocpeur.ttf
  4

1001
ACAD
1000
ISOCPEUR
1071
      256
  0
STYLE
  5
FA
330
3
100
AcDbSymbolTableRecord
100
AcDbTextStyleTableRecord
  2
StandardBezug (ISO)
 70
     0
 40
0.0
 41
1.0
 50
0.0
 71
     0
 42
0.2
  3
isocpeur.ttf
  4

1001
ACAD
1000
ISOCPEUR
1071
      256
  0
STYLE
  5
FB
330
3
100
AcDbSymbolTableRecord
100
AcDbTextStyleTableRecord
  2
StandardFührungslinie-Ursprungsindikator(DIN)
 70
     0
 40
0.0
 41
1.0
 50
0.0
 71
     0
 42
0.2
  3
isocpeur.ttf
  4

1001
ACAD
1000
ISOCPEUR
1071
      256
  0
STYLE
  5
FC
330
3
100
AcDbSymbolTableRecord
100
AcDbTextStyleTableRecord
  2
StandardFührungslinie - Bezugsstelle(DIN)
 70
     0
 40
0.0
 41
1.0
 50
0.0
 71
     0
 42
0.2
  3
isocpeur.ttf
  4

1001
ACAD
1000
ISOCPEUR
1071
      256
  0
STYLE
  5
FD
330
3
100
AcDbSymbolTableRecord
100
AcDbTextStyleTableRecord
  2
StandardFührungslinie - Punkt(DIN)
 70
     0
 40
0.0
 41
1.0
 50
0.0
 71
     0
 42
0.2
  3
isocpeur.ttf
  4

1001
ACAD
1000
ISOCPEUR
1071
      256
  0
STYLE
  5
FE
330
3
100
AcDbSymbolTableRecord
100
AcDbTextStyleTableRecord
  2
StandardFührungslinie(DIN)
 70
     0
 40
0.0
 41
1.0
 50
0.0
 71
     0
 42
0.2
  3
isocpeur.ttf
  4

1001
ACAD
1000
ISOCPEUR
1071
      256
  0
STYLE
  5
FF
330
3
100
AcDbSymbolTableRecord
100
AcDbTextStyleTableRecord
  2
StandardGroß (ISO)
 70
     0
 40
0.0
 41
1.0
 50
0.0
 71
     0
 42
0.2
  3
isocpeur.ttf
  4

1001
ACAD
1000
ISOCPEUR
1071
      256
  0
STYLE
  5
100
330
3
100
AcDbSymbolTableRecord
100
AcDbTextStyleTableRecord
  2
StandardStandard
 70
     0
 40
0.0
 41
1.0
 50
0.0
 71
     0
 42
0.2
  3
isocpeur.ttf
  4

1001
ACAD
1000
ISOCPEUR
1071
      256
  0
STYLE
  5
101
330
3
100
AcDbSymbolTableRecord
100
AcDbTextStyleTableRecord
  2
Stücklistentext
 70
     0
 40
0.0
 41
1.0
 50
0.0
 71
     0
 42
0.2
  3
arial.ttf
  4

1001
ACAD
1000
Arial
1071
      256
  0
STYLE
  5
102
330
3
100
AcDbSymbolTableRecord
100
AcDbTextStyleTableRecord
  2
TextStyle10
 70
     0
 40
0.0
 41
1.0
 50
0.0
 71
     0
 42
0.2
  3
isocpeur.ttf
  4

1001
ACAD
1000
ISOCPEUR
1071
      256
  0
STYLE
  5
103
330
3
100
AcDbSymbolTableRecord
100
AcDbTextStyleTableRecord
  2
TextStyle11
 70
     0
 40
0.0
 41
1.0
 50
0.0
 71
     0
 42
0.2
  3
isocpeur.ttf
  4

1001
ACAD
1000
ISOCPEUR
1071
      256
  0
STYLE
  5
104
330
3
100
AcDbSymbolTableRecord
100
AcDbTextStyleTableRecord
  2
TextStyle12
 70
     0
 40
0.0
 41
1.0
 50
0.0
 71
     0
 42
0.2
  3
isocpeur.ttf
  4

1001
ACAD
1000
ISOCPEUR
1071
      256
  0
STYLE
  5
105
330
3
100
AcDbSymbolTableRecord
100
AcDbTextStyleTableRecord
  2
TextStyle13
 70
     0
 40
0.0
 41
1.0
 50
0.0
 71
     0
 42
0.2
  3
isocpeur.ttf
  4

1001
ACAD
1000
ISOCPEUR
1071
      256
  0
STYLE
  5
106
330
3
100
AcDbSymbolTableRecord
100
AcDbTextStyleTableRecord
  2
TextStyle14
 70
     0
 40
0.0
 41
1.0
 50
0.0
 71
     0
 42
0.2
  3
isocpeur.ttf
  4

1001
ACAD
1000
ISOCPEUR
1071
      256
  0
STYLE
  5
107
330
3
100
AcDbSymbolTableRecord
100
AcDbTextStyleTableRecord
  2
TextStyle15
 70
     0
 40
0.0
 41
1.0
 50
0.0
 71
     0
 42
0.2
  3
isocpeur.ttf
  4

1001
ACAD
1000
ISOCPEUR
1071
      256
  0
STYLE
  5
108
330
3
100
AcDbSymbolTableRecord
100
AcDbTextStyleTableRecord
  2
TextStyle16
 70
     0
 40
0.0
 41
1.0
 50
0.0
 71
     0
 42
0.2
  3
isocpeur.ttf
  4

1001
ACAD
1000
ISOCPEUR
1071
      256
  0
STYLE
  5
109
330
3
100
AcDbSymbolTableRecord
100
AcDbTextStyleTableRecord
  2
TextStyle17
 70
     0
 40
0.0
 41
1.0
 50
0.0
 71
     0
 42
0.2
  3
isocpeur.ttf
  4

1001
ACAD
1000
ISOCPEUR
1071
      256
  0
STYLE
  5
10A
330
3
100
AcDbSymbolTableRecord
100
AcDbTextStyleTableRecord
  2
TextStyle18
 70
     0
 40
0.0
 41
1.0
 50
0.0
 71
     0
 42
0.2
  3
isocpeur.ttf
  4

1001
ACAD
1000
ISOCPEUR
1071
      256
  0
STYLE
  5
10B
330
3
100
AcDbSymbolTableRecord
100
AcDbTextStyleTableRecord
  2
TextStyle19
 70
     0
 40
0.0
 41
1.0
 50
0.0
 71
     0
 42
0.2
  3
isocpeur.ttf
  4

1001
ACAD
1000
ISOCPEUR
1071
      256
  0
STYLE
  5
10C
330
3
100
AcDbSymbolTableRecord
100
AcDbTextStyleTableRecord
  2
TextStyle20
 70
     0
 40
0.0
 41
1.0
 50
0.0
 71
     0
 42
0.2
  3
isocpeur.ttf
  4

1001
ACAD
1000
ISOCPEUR
1071
      256
  0
STYLE
  5
10D
330
3
100
AcDbSymbolTableRecord
100
AcDbTextStyleTableRecord
  2
TextStyle21
 70
     0
 40
0.0
 41
1.0
 50
0.0
 71
     0
 42
0.2
  3
isocpeur.ttf
  4

1001
ACAD
1000
ISOCPEUR
1071
      256
  0
STYLE
  5
10E
330
3
100
AcDbSymbolTableRecord
100
AcDbTextStyleTableRecord
  2
TextStyle22
 70
     0
 40
0.0
 41
1.0
 50
0.0
 71
     0
 42
0.2
  3
isocpeur.ttf
  4

1001
ACAD
1000
ISOCPEUR
1071
      256
  0
STYLE
  5
10F
330
3
100
AcDbSymbolTableRecord
100
AcDbTextStyleTableRecord
  2
TextStyle23
 70
     0
 40
0.0
 41
1.0
 50
0.0
 71
     0
 42
0.2
  3
isocpeur.ttf
  4

1001
ACAD
1000
ISOCPEUR
1071
      256
  0
STYLE
  5
110
330
3
100
AcDbSymbolTableRecord
100
AcDbTextStyleTableRecord
  2
TextStyle24
 70
     0
 40
0.0
 41
1.0
 50
0.0
 71
     0
 42
0.2
  3
isocpeur.ttf
  4

1001
ACAD
1000
ISOCPEUR
1071
      256
  0
STYLE
  5
111
330
3
100
AcDbSymbolTableRecord
100
AcDbTextStyleTableRecord
  2
TextStyle25
 70
     0
 40
0.0
 41
1.0
 50
0.0
 71
     0
 42
0.2
  3
isocpeur.ttf
  4

1001
ACAD
1000
ISOCPEUR
1071
      256
  0
STYLE
  5
112
330
3
100
AcDbSymbolTableRecord
100
AcDbTextStyleTableRecord
  2
TextStyle26
 70
     0
 40
0.0
 41
1.0
 50
0.0
 71
     0
 42
0.2
  3
isocpeur.ttf
  4

1001
ACAD
1000
ISOCPEUR
1071
      256
  0
STYLE
  5
113
330
3
100
AcDbSymbolTableRecord
100
AcDbTextStyleTableRecord
  2
TextStyle27
 70
     0
 40
0.0
 41
1.0
 50
0.0
 71
     0
 42
0.2
  3
isocpeur.ttf
  4

1001
ACAD
1000
ISOCPEUR
1071
      256
  0
STYLE
  5
114
330
3
100
AcDbSymbolTableRecord
100
AcDbTextStyleTableRecord
  2
TextStyle28
 70
     0
 40
0.0
 41
1.0
 50
0.0
 71
     0
 42
0.2
  3
isocpeur.ttf
  4

1001
ACAD
1000
ISOCPEUR
1071
      256
  0
STYLE
  5
115
330
3
100
AcDbSymbolTableRecord
100
AcDbTextStyleTableRecord
  2
TextStyle29
 70
     0
 40
0.0
 41
1.0
 50
0.0
 71
     0
 42
0.2
  3
isocpeur.ttf
  4

1001
ACAD
1000
ISOCPEUR
1071
      256
  0
STYLE
  5
116
330
3
100
AcDbSymbolTableRecord
100
AcDbTextStyleTableRecord
  2
TextStyle30
 70
     0
 40
0.0
 41
1.0
 50
0.0
 71
     0
 42
0.2
  3
isocpeur.ttf
  4

1001
ACAD
1000
ISOCPEUR
1071
      256
  0
STYLE
  5
117
330
3
100
AcDbSymbolTableRecord
100
AcDbTextStyleTableRecord
  2
TextStyle31
 70
     0
 40
0.0
 41
1.0
 50
0.0
 71
     0
 42
0.2
  3
isocpeur.ttf
  4

1001
ACAD
1000
ISOCPEUR
1071
      256
  0
STYLE
  5
118
330
3
100
AcDbSymbolTableRecord
100
AcDbTextStyleTableRecord
  2
TextStyle32
 70
     0
 40
0.0
 41
1.0
 50
0.0
 71
     0
 42
0.2
  3
isocpeur.ttf
  4

1001
ACAD
1000
ISOCPEUR
1071
      256
  0
STYLE
  5
119
330
3
100
AcDbSymbolTableRecord
100
AcDbTextStyleTableRecord
  2
TextStyle33
 70
     0
 40
0.0
 41
1.0
 50
0.0
 71
     0
 42
0.2
  3
isocpeur.ttf
  4

1001
ACAD
1000
ISOCPEUR
1071
      256
  0
STYLE
  5
11A
330
3
100
AcDbSymbolTableRecord
100
AcDbTextStyleTableRecord
  2
Toleranztext
 70
     0
 40
0.0
 41
1.0
 50
0.0
 71
     0
 42
0.2
  3
isocpeur.ttf
  4

1001
ACAD
1000
ISOCPEUR
1071
      256
  0
STYLE
  5
1D9
330
3
100
AcDbSymbolTableRecord
100
AcDbTextStyleTableRecord
  2
Textstil12
 70
     0
 40
0.0
 41
1.0
 50
0.0
 71
     0
 42
0.2
  3
isocpeur.ttf
  4

1001
ACAD
1000
ISOCPEUR
1071
      256
  0
ENDTAB
  0
TABLE
  2
VIEW
  5
6
330
0
100
AcDbSymbolTable
 70
     0
  0
ENDTAB
  0
TABLE
  2
UCS
  5
7
330
0
100
AcDbSymbolTable
 70
     0
  0
ENDTAB
  0
TABLE
  2
APPID
  5
9
330
0
100
AcDbSymbolTable
 70
     3
  0
APPID
  5
56
330
9
100
AcDbSymbolTableRecord
100
AcDbRegAppTableRecord
  2
ACAD
 70
     0
  0
APPID
  5
5E
330
9
100
AcDbSymbolTableRecord
100
AcDbRegAppTableRecord
  2
AcadAnnotative
 70
     0
  0
APPID
  5
1B2
330
9
100
AcDbSymbolTableRecord
100
AcDbRegAppTableRecord
  2
AcadAnnoPO
 70
     0
  0
ENDTAB
  0
TABLE
  2
DIMSTYLE
  5
A
330
0
100
AcDbSymbolTable
 70
    37
100
AcDbDimStyleTable
 71
     2
340
153
340
58
  0
DIMSTYLE
105
58
330
A
100
AcDbSymbolTableRecord
100
AcDbDimStyleTableRecord
  2
Standard
 70
     0
 41
0.1800000071525574
 43
0.3800000000000001
 44
0.18
 45
0.00000001
140
0.1800000071525574
143
1.0
147
0.0900000035762787
176
   256
177
   256
178
   256
340
100
371
    -1
372
    -1
  0
DIMSTYLE
105
59
330
A
100
AcDbSymbolTableRecord
100
AcDbDimStyleTableRecord
  2
Annotative
 70
     0
 41
0.1800000071525574
 43
0.3800000000000001
 44
0.18
 45
0.00000001
140
0.1800000071525574
143
1.0
147
0.0900000035762787
176
   256
177
   256
178
   256
340
F9
371
    -1
372
    -1
1001
AcadAnnotative
1000
AnnotativeData
1002
{
1070
     1
1070
     1
1002
}
  0
DIMSTYLE
105
11B
330
A
100
AcDbSymbolTableRecord
100
AcDbDimStyleTableRecord
  2
Alternativ (ISO)
 70
     0
 41
0.5
 42
0.0125
 43
0.076
 44
0.036
 45
0.00000001
140
0.0359999984502792
143
1.0
146
1.000000119209289
147
0.0180000007152558
176
   256
177
   256
178
   256
340
F8
371
    -1
372
    -1
  0
DIMSTYLE
105
11C
330
A
100
AcDbSymbolTableRecord
100
AcDbDimStyleTableRecord
  2
Alternativ (ISO)$7
 70
     0
 41
2.5
 42
0.0125
 43
0.076
 44
0.036
 45
0.00000001
140
0.0359999984502792
143
1.0
146
1.000000119209289
147
0.0180000007152558
176
   256
177
   256
178
   256
340
F8
371
    -1
372
    -1
  0
DIMSTYLE
105
11D
330
A
100
AcDbSymbolTableRecord
100
AcDbDimStyleTableRecord
  2
Annotative$7
 70
     0
 41
0.1800000071525574
 43
0.3800000000000001
 44
0.18
 45
0.00000001
140
0.1800000071525574
143
1.0
147
0.0900000035762787
176
   256
177
   256
178
   256
340
F9
371
    -1
372
    -1
1001
AcadAnnotative
1000
AnnotativeData
1002
{
1070
     1
1070
     1
1002
}
  0
DIMSTYLE
105
129
330
A
100
AcDbSymbolTableRecord
100
AcDbDimStyleTableRecord
  2
Bezug (ISO)
 70
     0
 41
0.5
 42
0.0125
 43
0.076
 44
0.036
 45
0.00000001
140
0.0359999984502792
143
1.0
146
1.000000119209289
147
0.0180000007152558
176
   256
177
   256
178
   256
340
FA
341
11E
371
    -1
372
    -1
  0
DIMSTYLE
105
12A
330
A
100
AcDbSymbolTableRecord
100
AcDbDimStyleTableRecord
  2
Bezug (ISO)$7
 70
     0
 41
2.5
 42
0.0125
 43
0.076
 44
0.036
 45
0.00000001
140
0.0359999984502792
143
1.0
146
1.000000119209289
147
0.0180000007152558
176
   256
177
   256
178
   256
340
FA
341
11E
371
    -1
372
    -1
  0
DIMSTYLE
105
12B
330
A
100
AcDbSymbolTableRecord
100
AcDbDimStyleTableRecord
  2
Durchmesser (DIN)
 70
     0
 41
2.5
 42
0.8
 43
5.999999999999999
 44
3.174999999999999
 45
0.00000001
 46
10.0
 73
     0
 74
     0
 77
     1
 78
     8
140
3.5
143
0.03937
147
0.8
171
     3
172
     1
176
   256
177
   256
178
   256
271
     2
272
     2
274
     3
278
    44
284
     8
340
F1
371
    -1
372
    -1
  0
DIMSTYLE
105
12C
330
A
100
AcDbSymbolTableRecord
100
AcDbDimStyleTableRecord
  2
Durchmesser (DIN)$7
 70
     0
 41
0.5
 42
0.16
 43
1.199999999999999
 44
0.635
 45
0.00000001
 46
2.0
 73
     0
 74
     0
 77
     1
 78
     8
140
0.6999999880790711
143
0.03937
147
0.1600000023841858
171
     3
172
     1
176
   256
177
   256
178
   256
271
     2
272
     2
274
     3
278
    44
284
     8
340
F2
371
    -1
372
    -1
  0
DIMSTYLE
105
12D
330
A
100
AcDbSymbolTableRecord
100
AcDbDimStyleTableRecord
  2
Durchmesser (DIN)$7$7
 70
     0
 41
0.5
 42
0.16
 43
1.199999999999999
 44
0.635
 45
0.00000001
 46
2.0
 73
     0
 74
     0
 77
     1
 78
     8
140
0.6999999880790711
143
0.03937
147
0.1600000023841858
171
     3
172
     1
176
   256
177
   256
178
   256
271
     2
272
     2
274
     3
278
    44
284
     8
340
F2
371
    -1
372
    -1
  0
DIMSTYLE
105
12E
330
A
100
AcDbSymbolTableRecord
100
AcDbDimStyleTableRecord
  2
Führungslinie-Ursprungsindikator(DIN)
 70
     0
 41
0.5
 42
0.0125
 43
0.076
 44
0.036
 45
0.00000001
140
0.0359999984502792
143
1.0
146
1.000000119209289
147
0.0180000007152558
176
   256
177
   256
178
   256
340
FB
371
    -1
372
    -1
  0
DIMSTYLE
105
12F
330
A
100
AcDbSymbolTableRecord
100
AcDbDimStyleTableRecord
  2
Führungslinie-Ursprungsindikator(DIN)$7
 70
     0
 41
2.5
 42
0.0125
 43
0.076
 44
0.036
 45
0.00000001
140
0.0359999984502792
143
1.0
146
1.000000119209289
147
0.0180000007152558
176
     7
177
   256
178
   256
340
FB
371
    -1
372
    -1
  0
DIMSTYLE
105
130
330
A
100
AcDbSymbolTableRecord
100
AcDbDimStyleTableRecord
  2
Führungslinie - Bezugsstelle(DIN)
 70
     0
 41
0.5
 42
0.0125
 43
0.076
 44
0.036
 45
0.00000001
140
0.0359999984502792
143
1.0
146
1.000000119209289
147
0.0180000007152558
176
   256
177
   256
178
   256
340
FC
341
11E
371
    -1
372
    -1
  0
DIMSTYLE
105
131
330
A
100
AcDbSymbolTableRecord
100
AcDbDimStyleTableRecord
  2
Führungslinie - Bezugsstelle(DIN)$7
 70
     0
 41
2.5
 42
0.0125
 43
0.076
 44
0.036
 45
0.00000001
140
0.0359999984502792
143
1.0
146
1.000000119209289
147
0.0180000007152558
176
   179
177
   256
178
   256
340
FC
341
11E
371
    25
372
    -1
  0
DIMSTYLE
105
132
330
A
100
AcDbSymbolTableRecord
100
AcDbDimStyleTableRecord
  2
Führungslinie - Punkt(DIN)
 70
     0
 41
0.5
 42
0.0125
 43
0.076
 44
0.036
 45
0.00000001
140
0.0359999984502792
143
1.0
146
1.000000119209289
147
0.0180000007152558
176
   256
177
   256
178
   256
340
FD
371
    -1
372
    -1
  0
DIMSTYLE
105
133
330
A
100
AcDbSymbolTableRecord
100
AcDbDimStyleTableRecord
  2
Führungslinie - Punkt(DIN)$7
 70
     0
 41
2.5
 42
0.0125
 43
0.076
 44
0.036
 45
0.00000001
140
0.0359999984502792
143
1.0
146
1.000000119209289
147
0.0180000007152558
176
   179
177
   256
178
   256
340
FD
371
    25
372
    -1
  0
DIMSTYLE
105
134
330
A
100
AcDbSymbolTableRecord
100
AcDbDimStyleTableRecord
  2
Führungslinie(DIN)
 70
     0
 41
0.5
 42
0.0125
 43
0.076
 44
0.036
 45
0.00000001
140
0.0359999984502792
143
1.0
146
1.000000119209289
147
0.0180000007152558
176
   256
177
   256
178
   256
340
FE
371
    -1
372
    -1
  0
DIMSTYLE
105
135
330
A
100
AcDbSymbolTableRecord
100
AcDbDimStyleTableRecord
  2
Führungslinie(DIN)$7
 70
     0
 41
2.5
 42
0.0125
 43
0.076
 44
0.036
 45
0.00000001
140
0.0359999984502792
143
1.0
146
1.000000119209289
147
0.0180000007152558
176
   179
177
   256
178
   256
340
FE
371
    25
372
    -1
  0
DIMSTYLE
105
144
330
A
100
AcDbSymbolTableRecord
100
AcDbDimStyleTableRecord
  2
Groß (ISO)
 70
     0
 41
1.0
 42
0.0125
 43
0.076
 44
0.036
 45
0.00000001
140
0.0359999984502792
143
1.0
146
1.000000119209289
147
0.0180000007152558
176
   256
177
   256
178
   256
340
FF
341
136
371
    -1
372
    -1
  0
DIMSTYLE
105
145
330
A
100
AcDbSymbolTableRecord
100
AcDbDimStyleTableRecord
  2
Groß (ISO)$7
 70
     0
 41
5.0
 42
0.0125
 43
0.076
 44
0.036
 45
0.00000001
140
0.0359999984502792
143
1.0
146
1.000000119209289
147
0.0180000007152558
176
   256
177
   256
178
   256
340
FF
341
136
371
    25
372
    -1
  0
DIMSTYLE
105
146
330
A
100
AcDbSymbolTableRecord
100
AcDbDimStyleTableRecord
  2
Standard$7
 70
     0
 41
0.1800000071525574
 43
0.3800000000000001
 44
0.18
 45
0.00000001
140
0.1800000071525574
143
1.0
147
0.0900000035762787
176
   256
177
   256
178
   256
340
100
371
    -1
372
    -1
  0
DIMSTYLE
105
147
330
A
100
AcDbSymbolTableRecord
100
AcDbDimStyleTableRecord
  2
STANDARD-DIN
 70
     0
 41
2.5
 42
0.0
 43
5.999999999999999
 44
3.174999999999999
 45
0.00000001
 46
10.0
 73
     0
 74
     0
 77
     1
140
3.5
143
0.03937
147
0.8
171
     3
172
     1
176
   250
177
   250
178
   250
271
     2
272
     2
274
     3
278
    44
340
F6
371
    25
372
    25
  0
DIMSTYLE
105
148
330
A
100
AcDbSymbolTableRecord
100
AcDbDimStyleTableRecord
  2
STANDARD-DIN$7
 70
     0
 41
0.5
 42
0.0
 43
1.199999999999999
 44
0.635
 45
0.00000001
 46
2.0
 73
     0
 74
     0
 77
     1
140
0.6999999880790711
143
0.03937
147
0.1600000023841858
171
     3
172
     1
176
   179
177
   179
178
   250
271
     2
272
     2
274
     3
278
    44
340
F7
371
    25
372
    25
  0
DIMSTYLE
105
149
330
A
100
AcDbSymbolTableRecord
100
AcDbDimStyleTableRecord
  2
STANDARD-DIN$7$7
 70
     0
 41
0.5
 42
0.0
 43
1.199999999999999
 44
0.635
 45
0.00000001
 46
2.0
 73
     0
 74
     0
 77
     1
140
0.6999999880790711
143
0.03937
147
0.1600000023841858
171
     3
172
     1
176
   179
177
   179
178
   250
271
     2
272
     2
274
     3
278
    44
340
F7
371
    25
372
    25
  0
DIMSTYLE
105
14A
330
A
100
AcDbSymbolTableRecord
100
AcDbDimStyleTableRecord
  2
STANDARD-DINGroßer Text
 70
     0
 41
5.0
 42
0.0
 43
5.999999999999999
 44
3.174999999999999
 45
0.00000001
 46
10.0
 73
     0
 74
     0
 77
     1
140
5.25
143
0.03937
146
0.6666666865348816
147
0.8
171
     3
172
     1
176
   250
177
   250
178
   179
271
     2
272
     2
274
     3
278
    44
340
ED
371
    25
372
    25
  0
DIMSTYLE
105
14B
330
A
100
AcDbSymbolTableRecord
100
AcDbDimStyleTableRecord
  2
STANDARD-DINGroßer Text$7
 70
     0
 41
1.0
 42
0.0
 43
1.199999999999999
 44
0.635
 45
0.00000001
 46
2.0
 73
     0
 74
     0
 77
     1
140
1.049999952316284
143
0.03937
146
0.6666667461395264
147
0.1600000023841858
171
     3
172
     1
176
   179
177
   179
178
   179
271
     2
272
     2
274
     3
278
    44
340
EE
371
    25
372
    25
  0
DIMSTYLE
105
14C
330
A
100
AcDbSymbolTableRecord
100
AcDbDimStyleTableRecord
  2
STANDARD-DINGroßer Text$7$7
 70
     0
 41
1.0
 42
0.0
 43
1.199999999999999
 44
0.635
 45
0.00000001
 46
2.0
 73
     0
 74
     0
 77
     1
140
1.049999952316284
143
0.03937
146
0.6666667461395264
147
0.1600000023841858
171
     3
172
     1
176
   179
177
   179
178
   179
271
     2
272
     2
274
     3
278
    44
340
EE
371
    25
372
    25
  0
DIMSTYLE
105
14D
330
A
100
AcDbSymbolTableRecord
100
AcDbDimStyleTableRecord
  2
Standard - Methode 2a (DIN)
 70
     0
 41
2.5
 42
0.8
 43
5.999999999999999
 44
3.174999999999999
 45
0.00000001
 46
10.0
 77
     1
 78
     8
 79
     2
140
3.5
143
0.03937
147
0.8
170
     1
171
     3
172
     1
176
   256
177
   256
178
   256
179
     2
271
     2
272
     2
274
     3
278
    44
284
     8
286
     8
340
F1
371
    -1
372
    -1
  0
DIMSTYLE
105
14E
330
A
100
AcDbSymbolTableRecord
100
AcDbDimStyleTableRecord
  2
Standard - Methode 2a (DIN)$7
 70
     0
 41
0.5
 42
0.16
 43
1.199999999999999
 44
0.635
 45
0.00000001
 46
2.0
 77
     1
 78
     8
 79
     2
140
0.6999999880790711
143
0.03937
147
0.1600000023841858
170
     1
171
     3
172
     1
176
   256
177
   256
178
   256
179
     2
271
     2
272
     2
274
     3
278
    44
284
     8
286
     8
340
F3
371
    -1
372
    -1
  0
DIMSTYLE
105
14F
330
A
100
AcDbSymbolTableRecord
100
AcDbDimStyleTableRecord
  2
Standard - Methode 2a (DIN)$7$7
 70
     0
 41
0.5
 42
0.16
 43
1.199999999999999
 44
0.635
 45
0.00000001
 46
2.0
 77
     1
 78
     8
 79
     2
140
0.6999999880790711
143
0.03937
147
0.1600000023841858
170
     1
171
     3
172
     1
176
   256
177
   256
178
   256
179
     2
271
     2
272
     2
274
     3
278
    44
284
     8
286
     8
340
F3
371
    -1
372
    -1
  0
DIMSTYLE
105
150
330
A
100
AcDbSymbolTableRecord
100
AcDbDimStyleTableRecord
  2
Standard - Methode 2b (DIN)
 70
     0
 41
2.5
 42
0.0
 43
5.999999999999999
 44
3.174999999999999
 45
0.00000001
 46
10.0
 77
     1
 78
     8
 79
     2
140
3.5
143
0.03937
147
0.8
171
     3
172
     1
176
   256
177
   256
178
   256
271
     2
272
     2
274
     3
278
    44
284
     8
286
     8
340
F1
371
    -1
372
    -1
  0
DIMSTYLE
105
151
330
A
100
AcDbSymbolTableRecord
100
AcDbDimStyleTableRecord
  2
Standard - Methode 2b (DIN)$7
 70
     0
 41
0.5
 42
0.0
 43
1.199999999999999
 44
0.635
 45
0.00000001
 46
2.0
 77
     1
 78
     8
 79
     2
140
0.6999999880790711
143
0.03937
147
0.1600000023841858
171
     3
172
     1
176
   256
177
   256
178
   256
271
     2
272
     2
274
     3
278
    44
284
     8
286
     8
340
F4
371
    -1
372
    -1
  0
DIMSTYLE
105
152
330
A
100
AcDbSymbolTableRecord
100
AcDbDimStyleTableRecord
  2
Standard - Methode 2b (DIN)$7$7
 70
     0
 41
0.5
 42
0.0
 43
1.199999999999999
 44
0.635
 45
0.00000001
 46
2.0
 77
     1
 78
     8
 79
     2
140
0.6999999880790711
143
0.03937
147
0.1600000023841858
171
     3
172
     1
176
   256
177
   256
178
   256
271
     2
272
     2
274
     3
278
    44
284
     8
286
     8
340
F4
371
    -1
372
    -1
  0
DIMSTYLE
105
153
102
{ACAD_REACTORS
330
36C
330
478
330
568
330
655
102
}
330
A
100
AcDbSymbolTableRecord
100
AcDbDimStyleTableRecord
  2
Standard (DIN)
 70
     0
 41
2.5
 42
0.8
 43
5.999999999999999
 44
1.0
 45
0.00000001
 46
10.0
 73
     0
 74
     0
 77
     1
 78
     8
 79
     2
140
3.5
143
0.03937
146
0.7142857313156128
147
0.8
171
     3
172
     1
176
   256
177
   256
178
   256
271
     2
272
     2
274
     3
278
    44
284
     8
340
F1
371
    -1
372
    -1
  0
DIMSTYLE
105
154
330
A
100
AcDbSymbolTableRecord
100
AcDbDimStyleTableRecord
  2
Standard (DIN)$7
 70
     0
 41
0.5
 42
0.16
 43
1.199999999999999
 44
0.2
 45
0.00000001
 46
2.0
 73
     0
 74
     0
 77
     1
 78
     8
 79
     2
140
0.6999999880790711
143
0.03937
146
0.7142857313156128
147
0.1600000023841858
171
     3
172
     1
176
   256
177
   256
178
   256
271
     2
272
     2
274
     3
278
    44
284
     8
340
F5
371
    -1
372
    -1
  0
DIMSTYLE
105
155
330
A
100
AcDbSymbolTableRecord
100
AcDbDimStyleTableRecord
  2
Standard (DIN)$7$7
 70
     0
 41
0.5
 42
0.16
 43
1.199999999999999
 44
0.2
 45
0.00000001
 46
2.0
 73
     0
 74
     0
 77
     1
 78
     8
 79
     2
140
0.6999999880790711
143
0.03937
146
0.7142857313156128
147
0.1600000023841858
171
     3
172
     1
176
   256
177
   256
178
   256
271
     2
272
     2
274
     3
278
    44
284
     8
340
F5
371
    -1
372
    -1
  0
DIMSTYLE
105
156
330
A
100
AcDbSymbolTableRecord
100
AcDbDimStyleTableRecord
  2
Allgemein (ANSI)
 70
     0
 41
2.5
340
55
  0
ENDTAB
  0
TABLE
  2
BLOCK_RECORD
  5
1
330
0
100
AcDbSymbolTable
 70
    34
  0
BLOCK_RECORD
  5
70
330
1
100
AcDbSymbolTableRecord
100
AcDbBlockTableRecord
  2
*Model_Space
340
73
 70
     0
280
     1
281
     0
  0
BLOCK_RECORD
  5
6C
330
1
100
AcDbSymbolTableRecord
100
AcDbBlockTableRecord
  2
*Paper_Space
340
6F
 70
     0
280
     1
281
     0
  0
BLOCK_RECORD
  5
74
330
1
100
AcDbSymbolTableRecord
100
AcDbBlockTableRecord
  2
*Paper_Space0
340
77
 70
     0
280
     1
281
     0
  0
BLOCK_RECORD
  5
11E
330
1
100
AcDbSymbolTableRecord
100
AcDbBlockTableRecord
  2
DatumFilled45
340
0
 70
     0
280
     1
281
     0
  0
BLOCK_RECORD
  5
136
330
1
100
AcDbSymbolTableRecord
100
AcDbBlockTableRecord
  2
Filled-1
340
0
 70
     0
280
     1
281
     0
  0
BLOCK_RECORD
  5
157
330
1
100
AcDbSymbolTableRecord
100
AcDbBlockTableRecord
  2
Werkstückkanten 0_1
340
0
 70
     0
280
     1
281
     0
  0
BLOCK_RECORD
  5
16D
330
1
100
AcDbSymbolTableRecord
100
AcDbBlockTableRecord
  2
Werkstk.kant. 0_2_0_4
340
0
 70
     0
280
     1
281
     0
  0
BLOCK_RECORD
  5
182
330
1
100
AcDbSymbolTableRecord
100
AcDbBlockTableRecord
  2
Tech.Feld Sicken [Stahl]
340
0
 70
     0
280
     1
281
     0
  0
BLOCK_RECORD
  5
18A
330
1
100
AcDbSymbolTableRecord
100
AcDbBlockTableRecord
  2
Tech.Feld Sicken [V2A]
340
0
 70
     0
280
     1
281
     0
  0
BLOCK_RECORD
  5
18E
330
1
100
AcDbSymbolTableRecord
100
AcDbBlockTableRecord
  2
Tech.Feld Sicken [V4A]
340
0
 70
     0
280
     1
281
     0
  0
BLOCK_RECORD
  5
192
330
1
100
AcDbSymbolTableRecord
100
AcDbBlockTableRecord
  2
Ausgefahren
340
0
 70
     0
280
     1
281
     0
  0
BLOCK_RECORD
  5
196
330
1
100
AcDbSymbolTableRecord
100
AcDbBlockTableRecord
  2
Brüniert
340
0
 70
     0
280
     1
281
     0
  0
BLOCK_RECORD
  5
19A
330
1
100
AcDbSymbolTableRecord
100
AcDbBlockTableRecord
  2
Eingefahren
340
0
 70
     0
280
     1
281
     0
  0
BLOCK_RECORD
  5
19E
330
1
100
AcDbSymbolTableRecord
100
AcDbBlockTableRecord
  2
Federlängenberechnung
340
0
 70
     0
280
     1
281
     0
  0
BLOCK_RECORD
  5
1B8
330
1
100
AcDbSymbolTableRecord
100
AcDbBlockTableRecord
  2
Galv. blau verzinkt
340
0
 70
     0
280
     1
281
     0
  0
BLOCK_RECORD
  5
1C0
330
1
100
AcDbSymbolTableRecord
100
AcDbBlockTableRecord
  2
Galv. gelb chromatiert
340
0
 70
     0
280
     1
281
     0
  0
BLOCK_RECORD
  5
1C8
330
1
100
AcDbSymbolTableRecord
100
AcDbBlockTableRecord
  2
Gewinderollen
340
0
 70
     0
280
     1
281
     0
  0
BLOCK_RECORD
  5
1D0
330
1
100
AcDbSymbolTableRecord
100
AcDbBlockTableRecord
  2
Glattwalzen
340
0
 70
     0
280
     1
281
     0
  0
BLOCK_RECORD
  5
1DC
330
1
100
AcDbSymbolTableRecord
100
AcDbBlockTableRecord
  2
Gratfrei
340
0
 70
     0
280
     1
281
     0
  0
BLOCK_RECORD
  5
1E4
330
1
100
AcDbSymbolTableRecord
100
AcDbBlockTableRecord
  2
Hartverchromen
340
0
 70
     0
280
     1
281
     0
  0
BLOCK_RECORD
  5
1EC
330
1
100
AcDbSymbolTableRecord
100
AcDbBlockTableRecord
  2
Nicht Freigegeben
340
0
 70
     0
280
     1
281
     0
  0
BLOCK_RECORD
  5
1F0
330
1
100
AcDbSymbolTableRecord
100
AcDbBlockTableRecord
  2
Außen Werkstückkanten 0_1
340
0
 70
     0
280
     1
281
     0
  0
BLOCK_RECORD
  5
1FC
330
1
100
AcDbSymbolTableRecord
100
AcDbBlockTableRecord
  2
Innen Werkstückkanten 0_1
340
0
 70
     0
280
     1
281
     0
  0
BLOCK_RECORD
  5
208
330
1
100
AcDbSymbolTableRecord
100
AcDbBlockTableRecord
  2
Außen Werkstückkanten 0_2
340
0
 70
     0
280
     1
281
     0
  0
BLOCK_RECORD
  5
214
330
1
100
AcDbSymbolTableRecord
100
AcDbBlockTableRecord
  2
Innen Werkstückkanten 0_2
340
0
 70
     0
280
     1
281
     0
  0
BLOCK_RECORD
  5
220
330
1
100
AcDbSymbolTableRecord
100
AcDbBlockTableRecord
  2
Ölsorten
340
0
 70
     0
280
     1
281
     0
  0
BLOCK_RECORD
  5
289
330
1
100
AcDbSymbolTableRecord
100
AcDbBlockTableRecord
  2
Zeichnungsnummer eingraviert
340
0
 70
     0
280
     1
281
     0
  0
BLOCK_RECORD
  5
291
330
1
100
AcDbSymbolTableRecord
100
AcDbBlockTableRecord
  2
Zeichnungsparameter
340
0
 70
     0
280
     1
281
     0
  0
BLOCK_RECORD
  5
2CE
330
1
100
AcDbSymbolTableRecord
100
AcDbBlockTableRecord
  2
_Closed
340
0
 70
     0
280
     1
281
     0
  0
BLOCK_RECORD
  5
2D5
330
1
100
AcDbSymbolTableRecord
100
AcDbBlockTableRecord
  2
Galvanisch blau verzinkt
340
0
 70
     0
280
     1
281
     0
  0
BLOCK_RECORD
  5
2DD
330
1
100
AcDbSymbolTableRecord
100
AcDbBlockTableRecord
  2
2DTransSchnitt0
340
0
102
{BLKREFS
331
36A
102
}
 70
     0
280
     1
281
     0
  0
BLOCK_RECORD
  5
302
330
1
100
AcDbSymbolTableRecord
100
AcDbBlockTableRecord
  2
Schraffur_1
340
0
102
{BLKREFS
331
36B
102
}
 70
     0
280
     1
281
     0
  0
BLOCK_RECORD
  5
36E
330
1
100
AcDbSymbolTableRecord
100
AcDbBlockTableRecord
  2
*D30
340
0
 70
     0
280
     1
281
     0
  0
BLOCK_RECORD
  5
479
330
1
100
AcDbSymbolTableRecord
100
AcDbBlockTableRecord
  2
*D31
340
0
 70
     0
280
     1
281
     0
  0
BLOCK_RECORD
  5
569
330
1
100
AcDbSymbolTableRecord
100
AcDbBlockTableRecord
  2
*D32
340
0
 70
     0
280
     1
281
     0
  0
BLOCK_RECORD
  5
656
330
1
100
AcDbSymbolTableRecord
100
AcDbBlockTableRecord
  2
*D33
340
0
 70
     0
280
     1
281
     0
  0
ENDTAB
  0
ENDSEC
  0
SECTION
  2
BLOCKS
  0
BLOCK
  5
71
330
70
100
AcDbEntity
  8
0
100
AcDbBlockBegin
  2
*Model_Space
 70
     0
 10
0.0
 20
0.0
 30
0.0
  3
*Model_Space
  1

  0
ENDBLK
  5
72
330
70
100
AcDbEntity
  8
0
100
AcDbBlockEnd
  0
BLOCK
  5
6D
330
6C
100
AcDbEntity
 67
     1
  8
0
100
AcDbBlockBegin
  2
*Paper_Space
 70
     0
 10
0.0
 20
0.0
 30
0.0
  3
*Paper_Space
  1

  0
ENDBLK
  5
6E
330
6C
100
AcDbEntity
 67
     1
  8
0
100
AcDbBlockEnd
  0
BLOCK
  5
75
330
74
100
AcDbEntity
 67
     1
  8
0
100
AcDbBlockBegin
  2
*Paper_Space0
 70
     0
 10
0.0
 20
0.0
 30
0.0
  3
*Paper_Space0
  1

  0
ENDBLK
  5
76
330
74
100
AcDbEntity
 67
     1
  8
0
100
AcDbBlockEnd
  0
BLOCK
  5
11F
330
11E
100
AcDbEntity
  8
0
100
AcDbBlockBegin
  2
DatumFilled45
 70
     0
 10
0.0
 20
0.0
 30
0.0
  3
DatumFilled45
  1

  0
POLYLINE
  5
121
330
11E
100
AcDbEntity
  8
0
 62
     0
100
AcDb2dPolyline
 66
     1
 10
0.0
 20
0.0
 30
0.0
 70
   128
  0
VERTEX
  5
122
330
121
100
AcDbEntity
  8
0
 62
     0
100
AcDbVertex
100
AcDb2dVertex
 10
0.0
 20
1.0
 30
0.0
  0
VERTEX
  5
123
330
121
100
AcDbEntity
  8
0
 62
     0
100
AcDbVertex
100
AcDb2dVertex
 10
0.0
 20
-1.0
 30
0.0
  0
VERTEX
  5
125
330
121
100
AcDbEntity
  8
0
 62
     0
100
AcDbVertex
100
AcDb2dVertex
 10
-1.0
 20
0.0
 30
0.0
  0
VERTEX
  5
126
330
121
100
AcDbEntity
  8
0
 62
     0
100
AcDbVertex
100
AcDb2dVertex
 10
0.0
 20
1.0
 30
0.0
  0
SEQEND
  5
124
330
121
100
AcDbEntity
  8
0
 62
     0
  0
SOLID
  5
128
330
11E
100
AcDbEntity
  8
0
 62
     0
100
AcDbTrace
 10
0.0
 20
1.0
 30
0.0
 11
0.0
 21
-1.0
 31
0.0
 12
-1.0
 22
0.0
 32
0.0
 13
0.0
 23
1.0
 33
0.0
  0
ENDBLK
  5
120
330
11E
100
AcDbEntity
  8
0
100
AcDbBlockEnd
  0
BLOCK
  5
137
330
136
100
AcDbEntity
  8
0
100
AcDbBlockBegin
  2
Filled-1
 70
     0
 10
0.0
 20
0.0
 30
0.0
  3
Filled-1
  1

  0
LINE
  5
139
330
136
100
AcDbEntity
  8
0
 62
     0
100
AcDbLine
 10
-1.0
 20
0.0
 30
0.0
 11
0.0
 21
0.0
 31
0.0
  0
POLYLINE
  5
13A
330
136
100
AcDbEntity
  8
0
 62
     0
100
AcDb2dPolyline
 66
     1
 10
0.0
 20
0.0
 30
0.0
 70
   128
  0
VERTEX
  5
13B
330
13A
100
AcDbEntity
  8
0
 62
     0
100
AcDbVertex
100
AcDb2dVertex
 10
-1.0
 20
-0.1
 30
0.0
  0
VERTEX
  5
13C
330
13A
100
AcDbEntity
  8
0
 62
     0
100
AcDbVertex
100
AcDb2dVertex
 10
0.0
 20
0.0
 30
0.0
  0
VERTEX
  5
13E
330
13A
100
AcDbEntity
  8
0
 62
     0
100
AcDbVertex
100
AcDb2dVertex
 10
-1.0
 20
0.1
 30
0.0
  0
VERTEX
  5
13F
330
13A
100
AcDbEntity
  8
0
 62
     0
100
AcDbVertex
100
AcDb2dVertex
 10
-1.0
 20
-0.1
 30
0.0
  0
SEQEND
  5
13D
330
13A
100
AcDbEntity
  8
0
 62
     0
  0
SOLID
  5
140
330
136
100
AcDbEntity
  8
0
 62
     0
100
AcDbTrace
 10
-1.0
 20
-0.1
 30
0.0
 11
0.0
 21
0.0
 31
0.0
 12
-1.0
 22
0.1
 32
0.0
 13
-1.0
 23
-0.1
 33
0.0
  0
LINE
  5
141
330
136
100
AcDbEntity
  8
0
 62
     0
100
AcDbLine
 10
-1.0
 20
-0.1
 30
0.0
 11
0.0
 21
0.0
 31
0.0
  0
LINE
  5
142
330
136
100
AcDbEntity
  8
0
 62
     0
100
AcDbLine
 10
0.0
 20
0.0
 30
0.0
 11
-1.0
 21
0.1
 31
0.0
  0
LINE
  5
143
330
136
100
AcDbEntity
  8
0
 62
     0
100
AcDbLine
 10
-1.0
 20
0.1
 30
0.0
 11
-1.0
 21
-0.1
 31
0.0
  0
ENDBLK
  5
138
330
136
100
AcDbEntity
  8
0
100
AcDbBlockEnd
  0
BLOCK
  5
158
330
157
100
AcDbEntity
  8
0
100
AcDbBlockBegin
  2
Werkstückkanten 0_1
 70
     0
 10
0.0
 20
0.0
 30
0.0
  3
Werkstückkanten 0_1
  1

  0
LINE
  5
15A
330
157
100
AcDbEntity
  8
Skizziergeometrie (ISO)
100
AcDbLine
 10
-10.0
 20
0.0
 30
0.0
 11
0.0
 21
0.0
 31
0.0
  0
LINE
  5
15B
330
157
100
AcDbEntity
  8
Skizziergeometrie (ISO)
100
AcDbLine
 10
0.0
 20
0.0
 30
0.0
 11
0.0
 21
-5.999999999999996
 31
0.0
  0
LINE
  5
15C
330
157
100
AcDbEntity
  8
Skizziergeometrie (ISO)
100
AcDbLine
 10
0.0
 20
0.0
 30
0.0
 11
5.0
 21
5.0
 31
0.0
  0
LINE
  5
15D
330
157
100
AcDbEntity
  8
Skizziergeometrie (ISO)
100
AcDbLine
 10
5.0
 20
13.0
 30
0.0
 11
5.0
 21
5.0
 31
0.0
  0
LINE
  5
15E
330
157
100
AcDbEntity
  8
Skizziergeometrie (ISO)
100
AcDbLine
 10
5.0
 20
5.0
 30
0.0
 11
13.0
 21
5.0
 31
0.0
  0
LINE
  5
15F
330
157
100
AcDbEntity
  8
Skizziergeometrie (ISO)
100
AcDbLine
 10
0.0
 20
0.0
 30
0.0
 11
1.414213562373056
 21
2.12132034355962
 31
0.0
  0
LINE
  5
160
330
157
100
AcDbEntity
  8
Skizziergeometrie (ISO)
100
AcDbLine
 10
0.0
 20
0.0
 30
0.0
 11
2.121320343559638
 21
1.414213562373056
 31
0.0
  0
LINE
  5
161
330
157
100
AcDbEntity
  8
Skizziergeometrie (ISO)
100
AcDbLine
 10
2.121320343559638
 20
1.414213562373056
 30
0.0
 11
1.414213562373056
 21
2.12132034355962
 31
0.0
  0
LINE
  5
162
330
157
100
AcDbEntity
  8
Skizziergeometrie (ISO)
100
AcDbLine
 10
18.0
 20
0.0
 30
0.0
 11
20.12132034355968
 21
1.414213562373092
 31
0.0
  0
LINE
  5
163
330
157
100
AcDbEntity
  8
Skizziergeometrie (ISO)
100
AcDbLine
 10
18.0
 20
0.0
 30
0.0
 11
19.4142135623731
 21
2.121320343559656
 31
0.0
  0
LINE
  5
164
330
157
100
AcDbEntity
  8
Skizziergeometrie (ISO)
100
AcDbLine
 10
20.12132034355968
 20
1.414213562373092
 30
0.0
 11
19.4142135623731
 21
2.121320343559656
 31
0.0
  0
LINE
  5
165
330
157
100
AcDbEntity
  8
Skizziergeometrie (ISO)
100
AcDbLine
 10
18.0
 20
0.0
 30
0.0
 11
23.00000000000001
 21
5.0
 31
0.0
  0
LINE
  5
166
330
157
100
AcDbEntity
  8
Skizziergeometrie (ISO)
100
AcDbLine
 10
23.00000000000001
 20
5.0
 30
0.0
 11
31.00000000000001
 21
4.999999999999982
 31
0.0
  0
LINE
  5
167
330
157
100
AcDbEntity
  8
Skizziergeometrie (ISO)
100
AcDbLine
 10
22.99999999999997
 20
13.0
 30
0.0
 11
23.00000000000001
 21
5.0
 31
0.0
  0
LINE
  5
168
330
157
100
AcDbEntity
  8
Skizziergeometrie (ISO)
100
AcDbLine
 10
18.0
 20
0.0
 30
0.0
 11
18.00000000000004
 21
5.999999999999996
 31
0.0
  0
LINE
  5
169
330
157
100
AcDbEntity
  8
Skizziergeometrie (ISO)
100
AcDbLine
 10
18.0
 20
0.0
 30
0.0
 11
28.00000000000001
 21
0.0
 31
0.0
  0
MTEXT
  5
16A
330
157
100
AcDbEntity
  8
Symbol (ISO)
100
AcDbMText
 10
5.0
 20
4.534632066885624
 30
0.0
 40
3.499999940395355
 41
11.01623296737671
 46
0.0
 71
     7
 72
     1
  1
-0,10\P-0,05
  7
Notiztext (DIN)
 73
     2
 44
0.8571428656578063
  0
MTEXT
  5
16C
330
157
100
AcDbEntity
  8
Symbol (ISO)
100
AcDbMText
 10
23.00000000000001
 20
4.534632066885624
 30
0.0
 40
3.499999940395355
 41
11.01623296737671
 46
0.0
 71
     7
 72
     1
  1
-0,10\P-0,05
  7
Notiztext (DIN)
 73
     2
 44
0.8571428656578063
  0
ENDBLK
  5
159
330
157
100
AcDbEntity
  8
0
100
AcDbBlockEnd
  0
BLOCK
  5
16E
330
16D
100
AcDbEntity
  8
0
100
AcDbBlockBegin
  2
Werkstk.kant. 0_2_0_4
 70
     0
 10
0.0
 20
0.0
 30
0.0
  3
Werkstk.kant. 0_2_0_4
  1

  0
LINE
  5
170
330
16D
100
AcDbEntity
  8
Skizziergeometrie (ISO)
100
AcDbLine
 10
-10.0
 20
0.0
 30
0.0
 11
0.0
 21
0.0
 31
0.0
  0
LINE
  5
171
330
16D
100
AcDbEntity
  8
Skizziergeometrie (ISO)
100
AcDbLine
 10
0.0
 20
0.0
 30
0.0
 11
0.0
 21
-5.999999999999996
 31
0.0
  0
LINE
  5
172
330
16D
100
AcDbEntity
  8
Skizziergeometrie (ISO)
100
AcDbLine
 10
0.0
 20
0.0
 30
0.0
 11
5.0
 21
5.0
 31
0.0
  0
LINE
  5
173
330
16D
100
AcDbEntity
  8
Skizziergeometrie (ISO)
100
AcDbLine
 10
5.0
 20
13.0
 30
0.0
 11
5.0
 21
5.0
 31
0.0
  0
LINE
  5
174
330
16D
100
AcDbEntity
  8
Skizziergeometrie (ISO)
100
AcDbLine
 10
5.0
 20
5.0
 30
0.0
 11
13.0
 21
5.0
 31
0.0
  0
LINE
  5
175
330
16D
100
AcDbEntity
  8
Skizziergeometrie (ISO)
100
AcDbLine
 10
0.0
 20
0.0
 30
0.0
 11
1.414213562373056
 21
2.12132034355962
 31
0.0
  0
LINE
  5
176
330
16D
100
AcDbEntity
  8
Skizziergeometrie (ISO)
100
AcDbLine
 10
0.0
 20
0.0
 30
0.0
 11
2.121320343559638
 21
1.414213562373056
 31
0.0
  0
LINE
  5
177
330
16D
100
AcDbEntity
  8
Skizziergeometrie (ISO)
100
AcDbLine
 10
2.121320343559638
 20
1.414213562373056
 30
0.0
 11
1.414213562373056
 21
2.12132034355962
 31
0.0
  0
LINE
  5
178
330
16D
100
AcDbEntity
  8
Skizziergeometrie (ISO)
100
AcDbLine
 10
18.0
 20
0.0
 30
0.0
 11
20.12132034355968
 21
1.414213562373092
 31
0.0
  0
LINE
  5
179
330
16D
100
AcDbEntity
  8
Skizziergeometrie (ISO)
100
AcDbLine
 10
18.0
 20
0.0
 30
0.0
 11
19.4142135623731
 21
2.121320343559656
 31
0.0
  0
LINE
  5
17A
330
16D
100
AcDbEntity
  8
Skizziergeometrie (ISO)
100
AcDbLine
 10
20.12132034355968
 20
1.414213562373092
 30
0.0
 11
19.4142135623731
 21
2.121320343559656
 31
0.0
  0
LINE
  5
17B
330
16D
100
AcDbEntity
  8
Skizziergeometrie (ISO)
100
AcDbLine
 10
18.0
 20
0.0
 30
0.0
 11
23.00000000000001
 21
5.0
 31
0.0
  0
LINE
  5
17C
330
16D
100
AcDbEntity
  8
Skizziergeometrie (ISO)
100
AcDbLine
 10
23.00000000000001
 20
5.0
 30
0.0
 11
31.00000000000001
 21
4.999999999999982
 31
0.0
  0
LINE
  5
17D
330
16D
100
AcDbEntity
  8
Skizziergeometrie (ISO)
100
AcDbLine
 10
22.99999999999997
 20
13.0
 30
0.0
 11
23.00000000000001
 21
5.0
 31
0.0
  0
LINE
  5
17E
330
16D
100
AcDbEntity
  8
Skizziergeometrie (ISO)
100
AcDbLine
 10
18.0
 20
0.0
 30
0.0
 11
18.00000000000004
 21
5.999999999999996
 31
0.0
  0
LINE
  5
17F
330
16D
100
AcDbEntity
  8
Skizziergeometrie (ISO)
100
AcDbLine
 10
18.0
 20
0.0
 30
0.0
 11
28.00000000000001
 21
0.0
 31
0.0
  0
MTEXT
  5
180
330
16D
100
AcDbEntity
  8
Symbol (ISO)
100
AcDbMText
 10
5.0
 20
4.534632066885624
 30
0.0
 40
3.499999940395355
 41
11.01623296737671
 46
0.0
 71
     7
 72
     1
  1
-0,20\P-0,05
  7
Notiztext (DIN)
 73
     2
 44
0.8571428656578063
  0
MTEXT
  5
181
330
16D
100
AcDbEntity
  8
Symbol (ISO)
100
AcDbMText
 10
23.00000000000001
 20
4.534632066885624
 30
0.0
 40
3.499999940395355
 41
11.36688232421875
 46
0.0
 71
     7
 72
     1
  1
-0,40\P-0,05
  7
Notiztext (DIN)
 73
     2
 44
0.8571428656578063
  0
ENDBLK
  5
16F
330
16D
100
AcDbEntity
  8
0
100
AcDbBlockEnd
  0
BLOCK
  5
183
330
182
100
AcDbEntity
  8
0
100
AcDbBlockBegin
  2
Tech.Feld Sicken [Stahl]
 70
     0
 10
0.0
 20
0.0
 30
0.0
  3
Tech.Feld Sicken [Stahl]
  1

  0
LINE
  5
185
330
182
100
AcDbEntity
  8
Skizziergeometrie (ISO)
100
AcDbLine
 10
-40.0
 20
0.0
 30
0.0
 11
0.0
 21
0.0
 31
0.0
  0
LINE
  5
186
330
182
100
AcDbEntity
  8
Skizziergeometrie (ISO)
100
AcDbLine
 10
0.0
 20
0.0
 30
0.0
 11
0.0
 21
-50.0
 31
0.0
  0
LINE
  5
187
330
182
100
AcDbEntity
  8
Skizziergeometrie (ISO)
100
AcDbLine
 10
0.0
 20
-50.0
 30
0.0
 11
-40.0
 21
-50.0
 31
0.0
  0
LINE
  5
188
330
182
100
AcDbEntity
  8
Skizziergeometrie (ISO)
100
AcDbLine
 10
-40.0
 20
-50.0
 30
0.0
 11
-40.0
 21
0.0
 31
0.0
  0
MTEXT
  5
189
330
182
100
AcDbEntity
  8
Symbol (ISO)
100
AcDbMText
 10
-38.00000000000001
 20
-2.426640808582298
 30
0.0
 40
2.000000029802322
 41
35.94642015076396
 46
0.0
 71
     1
 72
     1
  1
\fISOCPEUR|b0|i0;\H2.0000;Sicken \fAIGDT|b0|i0;\H2.0000;n\fISOCPEUR|b0|i0;\H2.0000; für Stahl Rohre \P \PØ6  = \PØ8  = \PØ10 = \PØ12 =\PØ15 =
  7
Notiztext (DIN)
 73
     2
 44
1.100053191184997
  0
ENDBLK
  5
184
330
182
100
AcDbEntity
  8
0
100
AcDbBlockEnd
  0
BLOCK
  5
18B
330
18A
100
AcDbEntity
  8
0
100
AcDbBlockBegin
  2
Tech.Feld Sicken [V2A]
 70
     0
 10
0.0
 20
0.0
 30
0.0
  3
Tech.Feld Sicken [V2A]
  1

  0
MTEXT
  5
18D
330
18A
100
AcDbEntity
  8
Symbol (ISO)
100
AcDbMText
 10
-22.04383134841919
 20
20.44609114527702
 30
0.0
 40
3.499999940395355
 41
99.11923766011156
 46
0.0
 71
     1
 72
     1
  1
Sicken Ø für Rohre \P \PØ6  = \PØ8  = \PØ10 = \PØ12 =\PØ15 =
  7
Notiztext (DIN)
 73
     2
 44
1.068348050117492
  0
ENDBLK
  5
18C
330
18A
100
AcDbEntity
  8
0
100
AcDbBlockEnd
  0
BLOCK
  5
18F
330
18E
100
AcDbEntity
  8
0
100
AcDbBlockBegin
  2
Tech.Feld Sicken [V4A]
 70
     0
 10
0.0
 20
0.0
 30
0.0
  3
Tech.Feld Sicken [V4A]
  1

  0
MTEXT
  5
191
330
18E
100
AcDbEntity
  8
Symbol (ISO)
100
AcDbMText
 10
-22.04383134841919
 20
20.44609114527702
 30
0.0
 40
3.499999940395355
 41
99.11923766011156
 46
0.0
 71
     1
 72
     1
  1
Sicken Ø für Rohre \P \PØ6  = \PØ8  = \PØ10 = \PØ12 =\PØ15 =
  7
Notiztext (DIN)
 73
     2
 44
1.068348050117492
  0
ENDBLK
  5
190
330
18E
100
AcDbEntity
  8
0
100
AcDbBlockEnd
  0
BLOCK
  5
193
330
192
100
AcDbEntity
  8
0
100
AcDbBlockBegin
  2
Ausgefahren
 70
     0
 10
0.0
 20
0.0
 30
0.0
  3
Ausgefahren
  1

  0
MTEXT
  5
195
330
192
100
AcDbEntity
  8
Symbol (ISO)
100
AcDbMText
 10
0.0
 20
0.0
 30
0.0
 40
3.499999940395355
 41
26.93506479263306
 46
0.0
 71
     5
 72
     1
  1
Ausgefahren
  7
Notiztext (DIN)
 73
     1
 44
1.0
  0
ENDBLK
  5
194
330
192
100
AcDbEntity
  8
0
100
AcDbBlockEnd
  0
BLOCK
  5
197
330
196
100
AcDbEntity
  8
0
100
AcDbBlockBegin
  2
Brüniert
 70
     0
 10
0.0
 20
0.0
 30
0.0
  3
Brüniert
  1

  0
MTEXT
  5
199
330
196
100
AcDbEntity
  8
Symbol (ISO)
100
AcDbMText
 10
0.0
 20
0.0
 30
0.0
 40
3.499999940395355
 41
24.48881556923951
 46
0.0
 71
     5
 72
     1
  1
brüniert
  7
Notiztext (DIN)
 73
     1
 44
1.0
  0
ENDBLK
  5
198
330
196
100
AcDbEntity
  8
0
100
AcDbBlockEnd
  0
BLOCK
  5
19B
330
19A
100
AcDbEntity
  8
0
100
AcDbBlockBegin
  2
Eingefahren
 70
     0
 10
0.0
 20
0.0
 30
0.0
  3
Eingefahren
  1

  0
MTEXT
  5
19D
330
19A
100
AcDbEntity
  8
Symbol (ISO)
100
AcDbMText
 10
0.0
 20
0.0
 30
0.0
 40
3.499999940395355
 41
24.83441591262817
 46
0.0
 71
     5
 72
     1
  1
Eingefahren
  7
Notiztext (DIN)
 73
     1
 44
1.0
  0
ENDBLK
  5
19C
330
19A
100
AcDbEntity
  8
0
100
AcDbBlockEnd
  0
BLOCK
  5
19F
330
19E
100
AcDbEntity
  8
0
100
AcDbBlockBegin
  2
Federlängenberechnung
 70
     2
 10
0.0
 20
0.0
 30
0.0
  3
Federlängenberechnung
  1

  0
LINE
  5
1A1
330
19E
100
AcDbEntity
  8
Skizziergeometrie (ISO)
100
AcDbLine
 10
0.0
 20
20.99999999999998
 30
0.0
 11
149.888669688947
 21
21.00000000000005
 31
0.0
  0
LINE
  5
1A2
330
19E
100
AcDbEntity
  8
Skizziergeometrie (ISO)
100
AcDbLine
 10
149.888669688947
 20
21.00000000000005
 30
0.0
 11
149.888669688947
 21
13.99999999999998
 31
0.0
  0
LINE
  5
1A3
330
19E
100
AcDbEntity
  8
Skizziergeometrie (ISO)
100
AcDbLine
 10
149.888669688947
 20
13.99999999999998
 30
0.0
 11
0.0
 21
13.99999999999998
 31
0.0
  0
LINE
  5
1A4
330
19E
100
AcDbEntity
  8
Skizziergeometrie (ISO)
100
AcDbLine
 10
0.0
 20
13.99999999999998
 30
0.0
 11
0.0
 21
20.99999999999998
 31
0.0
  0
LINE
  5
1A5
330
19E
100
AcDbEntity
  8
Skizziergeometrie (ISO)
100
AcDbLine
 10
0.0
 20
13.99999999999998
 30
0.0
 11
149.888669688947
 21
13.99999999999998
 31
0.0
  0
LINE
  5
1A6
330
19E
100
AcDbEntity
  8
Skizziergeometrie (ISO)
100
AcDbLine
 10
149.888669688947
 20
13.99999999999998
 30
0.0
 11
149.888669688947
 21
6.999999999999992
 31
0.0
  0
LINE
  5
1A7
330
19E
100
AcDbEntity
  8
Skizziergeometrie (ISO)
100
AcDbLine
 10
149.888669688947
 20
6.999999999999992
 30
0.0
 11
0.0
 21
6.999999999999992
 31
0.0
  0
LINE
  5
1A8
330
19E
100
AcDbEntity
  8
Skizziergeometrie (ISO)
100
AcDbLine
 10
0.0
 20
6.999999999999992
 30
0.0
 11
0.0
 21
13.99999999999998
 31
0.0
  0
LINE
  5
1A9
330
19E
100
AcDbEntity
  8
Skizziergeometrie (ISO)
100
AcDbLine
 10
149.888669688947
 20
8.327958252741218
 30
0.0
 11
149.888669688947
 21
0.0
 31
0.0
  0
LINE
  5
1AA
330
19E
100
AcDbEntity
  8
Skizziergeometrie (ISO)
100
AcDbLine
 10
149.888669688947
 20
0.0
 30
0.0
 11
0.0
 21
0.0
 31
0.0
  0
LINE
  5
1AB
330
19E
100
AcDbEntity
  8
Skizziergeometrie (ISO)
100
AcDbLine
 10
0.0
 20
0.0
 30
0.0
 11
0.0
 21
6.999999999999992
 31
0.0
  0
LINE
  5
1AC
330
19E
100
AcDbEntity
  8
Skizziergeometrie (ISO)
100
AcDbLine
 10
0.0
 20
0.0
 30
0.0
 11
149.888669688947
 21
0.0
 31
0.0
  0
LINE
  5
1AD
330
19E
100
AcDbEntity
  8
Skizziergeometrie (ISO)
100
AcDbLine
 10
80.0
 20
21.00000000000001
 30
0.0
 11
80.0
 21
0.0884382381834925
 31
0.0
  0
MTEXT
  5
1AE
330
19E
100
AcDbEntity
  8
Symbol (ISO)
100
AcDbMText
 10
5.0
 20
18.99999999999998
 30
0.0
 40
3.499999940395355
 41
0.0
 46
0.0
 71
     1
 72
     1
  1
Kolbenstange
  7
Notiztext (DIN)
 73
     1
 44
1.0
  0
MTEXT
  5
1AF
330
19E
100
AcDbEntity
  8
Symbol (ISO)
100
AcDbMText
 10
85.0
 20
19.00000000000002
 30
0.0
 40
3.499999940395355
 41
0.0
 46
0.0
 71
     1
 72
     1
  1
1 x HUB + 
  7
Notiztext (DIN)
 73
     1
 44
1.0
  0
ATTDEF
  5
1B0
102
{ACAD_XDICTIONARY
360
74F
102
}
330
19E
100
AcDbEntity
  8
Symbol (ISO)
100
AcDbText
 10
116.2125009366513
 20
15.50000005960466
 30
0.0
 40
3.499999940395355
  1

  7
Notiztext (DIN)
 11
116.2125009366513
 21
19.00000000000002
 31
0.0
100
AcDbAttributeDefinition
280
     0
  3
Kolbenstangenlänge = Hub + ? mm
  2
Kolbenstangenlänge_=_Hub_+_?_mm
 70
     0
 74
     3
280
     0
  0
MTEXT
  5
1B3
330
19E
100
AcDbEntity
  8
Symbol (ISO)
100
AcDbMText
 10
5.0
 20
11.99999999999999
 30
0.0
 40
3.499999940395355
 41
0.0
 46
0.0
 71
     1
 72
     1
  1
Gesamtlänge ausgefahren (GL)
  7
Notiztext (DIN)
 73
     1
 44
1.0
  0
MTEXT
  5
1B4
330
19E
100
AcDbEntity
  8
Symbol (ISO)
100
AcDbMText
 10
85.0
 20
11.99999999999999
 30
0.0
 40
3.499999940395355
 41
0.0
 46
0.0
 71
     1
 72
     1
  1
2 x HUB + 
  7
Notiztext (DIN)
 73
     1
 44
1.0
  0
ATTDEF
  5
1B5
102
{ACAD_XDICTIONARY
360
752
102
}
330
19E
100
AcDbEntity
  8
Symbol (ISO)
100
AcDbText
 10
116.2113753446558
 20
8.500000059604637
 30
0.0
 40
3.499999940395355
  1

  7
Notiztext (DIN)
 11
116.2113753446558
 21
11.99999999999999
 31
0.0
100
AcDbAttributeDefinition
280
     0
  3
Gesamtlänge ausgefahren 2 x HUB +
  2
Gesamtlänge_ausgefahren_2_x_HUB_+
 70
     0
 74
     3
280
     0
  0
MTEXT
  5
1B6
330
19E
100
AcDbEntity
  8
Symbol (ISO)
100
AcDbMText
 10
5.0
 20
5.0
 30
0.0
 40
3.499999940395355
 41
0.0
 46
0.0
 71
     1
 72
     1
  1
Einfahrsicherung\P
  7
Notiztext (DIN)
 73
     2
 44
1.068348050117492
  0
MTEXT
  5
1B7
330
19E
100
AcDbEntity
  8
Symbol (ISO)
100
AcDbMText
 10
85.0
 20
5.0
 30
0.0
 40
3.499999940395355
 41
0.0
 46
0.0
 71
     1
 72
     1
  1
GL - 2 x HUB - 61 
  7
Notiztext (DIN)
 73
     1
 44
1.0
  0
ENDBLK
  5
1A0
330
19E
100
AcDbEntity
  8
0
100
AcDbBlockEnd
  0
BLOCK
  5
1B9
330
1B8
100
AcDbEntity
  8
0
100
AcDbBlockBegin
  2
Galv. blau verzinkt
 70
     0
 10
0.0
 20
0.0
 30
0.0
  3
Galv. blau verzinkt
  1

  0
LINE
  5
1BB
330
1B8
100
AcDbEntity
  8
Skizziergeometrie (ISO)
100
AcDbLine
 10
-72.71744259457588
 20
13.49399274657987
 30
0.0
 11
0.0
 21
13.49399274657987
 31
0.0
  0
LINE
  5
1BC
330
1B8
100
AcDbEntity
  8
Skizziergeometrie (ISO)
100
AcDbLine
 10
0.0
 20
13.49399274657987
 30
0.0
 11
0.0
 21
0.0
 31
0.0
  0
LINE
  5
1BD
330
1B8
100
AcDbEntity
  8
Skizziergeometrie (ISO)
100
AcDbLine
 10
0.0
 20
0.0
 30
0.0
 11
-72.71744259457588
 21
0.0
 31
0.0
  0
LINE
  5
1BE
330
1B8
100
AcDbEntity
  8
Skizziergeometrie (ISO)
100
AcDbLine
 10
-72.71744259457588
 20
0.0
 30
0.0
 11
-72.71744259457588
 21
13.49399274657987
 31
0.0
  0
MTEXT
  5
1BF
330
1B8
100
AcDbEntity
  8
Symbol (ISO)
100
AcDbMText
 10
-36.35872129728796
 20
3.735591916700968
 30
0.0
 40
3.499999940395355
 41
72.71744259457584
 46
0.0
 71
     5
 72
     1
  1
Galvanisch blau verzinkt \PSchichtdicke 0,005-0,008 \P
  7
Notiztext (DIN)
 73
     2
 44
1.068348050117492
  0
ENDBLK
  5
1BA
330
1B8
100
AcDbEntity
  8
0
100
AcDbBlockEnd
  0
BLOCK
  5
1C1
330
1C0
100
AcDbEntity
  8
0
100
AcDbBlockBegin
  2
Galv. gelb chromatiert
 70
     0
 10
0.0
 20
0.0
 30
0.0
  3
Galv. gelb chromatiert
  1

  0
LINE
  5
1C3
330
1C0
100
AcDbEntity
  8
Skizziergeometrie (ISO)
100
AcDbLine
 10
-72.71744259457588
 20
13.49399274657987
 30
0.0
 11
0.0
 21
13.49399274657987
 31
0.0
  0
LINE
  5
1C4
330
1C0
100
AcDbEntity
  8
Skizziergeometrie (ISO)
100
AcDbLine
 10
0.0
 20
13.49399274657987
 30
0.0
 11
0.0
 21
0.0
 31
0.0
  0
LINE
  5
1C5
330
1C0
100
AcDbEntity
  8
Skizziergeometrie (ISO)
100
AcDbLine
 10
0.0
 20
0.0
 30
0.0
 11
-72.71744259457588
 21
0.0
 31
0.0
  0
LINE
  5
1C6
330
1C0
100
AcDbEntity
  8
Skizziergeometrie (ISO)
100
AcDbLine
 10
-72.71744259457588
 20
0.0
 30
0.0
 11
-72.71744259457588
 21
13.49399274657987
 31
0.0
  0
MTEXT
  5
1C7
330
1C0
100
AcDbEntity
  8
Symbol (ISO)
100
AcDbMText
 10
-36.35872129728796
 20
3.081118370440876
 30
0.0
 40
3.499999940395355
 41
72.71744259457584
 46
0.0
 71
     5
 72
     1
  1
Galvanisch gelb chromatiert\PSchichtdicke 0,005-0,008\P 
  7
Notiztext (DIN)
 73
     2
 44
1.068348050117492
  0
ENDBLK
  5
1C2
330
1C0
100
AcDbEntity
  8
0
100
AcDbBlockEnd
  0
BLOCK
  5
1C9
330
1C8
100
AcDbEntity
  8
0
100
AcDbBlockBegin
  2
Gewinderollen
 70
     0
 10
0.0
 20
0.0
 30
0.0
  3
Gewinderollen
  1

  0
LINE
  5
1CB
330
1C8
100
AcDbEntity
  8
Skizziergeometrie (ISO)
100
AcDbLine
 10
-40.0
 20
0.0
 30
0.0
 11
0.0
 21
0.0
 31
0.0
  0
LINE
  5
1CC
330
1C8
100
AcDbEntity
  8
Skizziergeometrie (ISO)
100
AcDbLine
 10
0.0
 20
0.0
 30
0.0
 11
0.0
 21
-50.0
 31
0.0
  0
LINE
  5
1CD
330
1C8
100
AcDbEntity
  8
Skizziergeometrie (ISO)
100
AcDbLine
 10
0.0
 20
-50.0
 30
0.0
 11
-40.0
 21
-50.0
 31
0.0
  0
LINE
  5
1CE
330
1C8
100
AcDbEntity
  8
Skizziergeometrie (ISO)
100
AcDbLine
 10
-40.0
 20
-50.0
 30
0.0
 11
-40.0
 21
0.0
 31
0.0
  0
MTEXT
  5
1CF
330
1C8
100
AcDbEntity
  8
Symbol (ISO)
100
AcDbMText
 10
-38.00000000000001
 20
-1.999999999999992
 30
0.0
 40
2.5
 41
36.23144626617432
 46
0.0
 71
     1
 72
     1
  1
\fISOCPEUR|b0|i0;\H2.5000;Gewinderolldurchmesser\PM2    = \PM3.5  =\PM4    =\PM5    =\PM6   =\PM8   =\PM10  =\PM10x1 =
  7
Notiztext (DIN)
 73
     2
 44
1.068348169326782
  0
ENDBLK
  5
1CA
330
1C8
100
AcDbEntity
  8
0
100
AcDbBlockEnd
  0
BLOCK
  5
1D1
330
1D0
100
AcDbEntity
  8
0
100
AcDbBlockBegin
  2
Glattwalzen
 70
     2
 10
0.0
 20
0.0
 30
0.0
  3
Glattwalzen
  1

  0
LINE
  5
1D3
330
1D0
100
AcDbEntity
  8
Skizziergeometrie (ISO)
100
AcDbLine
 10
-40.0
 20
0.0
 30
0.0
 11
0.0
 21
0.0
 31
0.0
  0
LINE
  5
1D4
330
1D0
100
AcDbEntity
  8
Skizziergeometrie (ISO)
100
AcDbLine
 10
0.0
 20
0.0
 30
0.0
 11
0.0
 21
-21.99999999999999
 31
0.0
  0
LINE
  5
1D5
330
1D0
100
AcDbEntity
  8
Skizziergeometrie (ISO)
100
AcDbLine
 10
0.0
 20
-21.99999999999999
 30
0.0
 11
-40.0
 21
-21.99999999999999
 31
0.0
  0
LINE
  5
1D6
330
1D0
100
AcDbEntity
  8
Skizziergeometrie (ISO)
100
AcDbLine
 10
-40.0
 20
-21.99999999999999
 30
0.0
 11
-40.0
 21
0.0
 31
0.0
  0
MTEXT
  5
1D7
330
1D0
100
AcDbEntity
  8
Symbol (ISO)
100
AcDbMText
 10
-38.17811856971261
 20
-8.123323012846874
 30
0.0
 40
2.5
 41
69.99999999999992
 46
0.0
 71
     4
 72
     1
  1
\fISOCPEUR|b0|i0;\H2.5000;Glattgewalzt  \PMaschinen Nr:\PPressdruck:       [bar]
  7
Notiztext (DIN)
 73
     2
 44
1.068348169326782
  0
MTEXT
  5
1D8
330
1D0
100
AcDbEntity
  8
Symbol (ISO)
100
AcDbMText
 10
-38.14068805280748
 20
-15.81452038423169
 30
0.0
 40
1.500000059604644
 41
36.92886657837185
 46
0.0
 71
     1
 72
     1
  1
\fISOCPEUR|b0|i0;\H1.5000;Einstichverfahren (Heckenscheidt)  = A\PRollierverfahren (Baublies) = B
  7
Notiztext (DIN)
 73
     2
 44
1.068348169326782
  0
ATTDEF
  5
1DA
102
{ACAD_XDICTIONARY
360
755
102
}
330
1D0
100
AcDbEntity
  8
Symbol (ISO)
100
AcDbText
 10
-16.01934532153102
 20
-9.113995777682752
 30
0.0
 40
2.5
  1

  7
Textstil12
 11
-16.01934532153102
 21
-6.613995777682752
 31
0.0
100
AcDbAttributeDefinition
280
     0
  3
A oder B
  2
A_oder_B
 70
     0
 74
     3
280
     0
  0
ATTDEF
  5
1DB
102
{ACAD_XDICTIONARY
360
758
102
}
330
1D0
100
AcDbEntity
  8
Symbol (ISO)
100
AcDbText
 10
-15.62320944112755
 20
-13.54537757685417
 30
0.0
 40
2.5
  1

  7
Textstil12
 72
     1
 11
-15.62320944112755
 21
-12.29537757685417
 31
0.0
100
AcDbAttributeDefinition
280
     0
  3
Druck
  2
Druck
 70
     0
 74
     2
280
     0
  0
ENDBLK
  5
1D2
330
1D0
100
AcDbEntity
  8
0
100
AcDbBlockEnd
  0
BLOCK
  5
1DD
330
1DC
100
AcDbEntity
  8
0
100
AcDbBlockBegin
  2
Gratfrei
 70
     0
 10
0.0
 20
0.0
 30
0.0
  3
Gratfrei
  1

  0
LINE
  5
1DF
330
1DC
100
AcDbEntity
  8
Skizziergeometrie (ISO)
100
AcDbLine
 10
-60.0
 20
8.000000000000007
 30
0.0
 11
0.0
 21
8.000000000000007
 31
0.0
  0
LINE
  5
1E0
330
1DC
100
AcDbEntity
  8
Skizziergeometrie (ISO)
100
AcDbLine
 10
0.0
 20
8.000000000000007
 30
0.0
 11
0.0
 21
0.0
 31
0.0
  0
LINE
  5
1E1
330
1DC
100
AcDbEntity
  8
Skizziergeometrie (ISO)
100
AcDbLine
 10
0.0
 20
0.0
 30
0.0
 11
-60.0
 21
0.0
 31
0.0
  0
LINE
  5
1E2
330
1DC
100
AcDbEntity
  8
Skizziergeometrie (ISO)
100
AcDbLine
 10
-60.0
 20
0.0
 30
0.0
 11
-60.0
 21
8.000000000000007
 31
0.0
  0
MTEXT
  5
1E3
330
1DC
100
AcDbEntity
  8
Symbol (ISO)
100
AcDbMText
 10
-30.0
 20
3.999999999999985
 30
0.0
 40
3.499999940395355
 41
60.0
 46
0.0
 71
     5
 72
     1
  1
Teile gratfrei trowalisieren
  7
Notiztext (DIN)
 73
     1
 44
1.0
  0
ENDBLK
  5
1DE
330
1DC
100
AcDbEntity
  8
0
100
AcDbBlockEnd
  0
BLOCK
  5
1E5
330
1E4
100
AcDbEntity
  8
0
100
AcDbBlockBegin
  2
Hartverchromen
 70
     0
 10
0.0
 20
0.0
 30
0.0
  3
Hartverchromen
  1

  0
LINE
  5
1E7
330
1E4
100
AcDbEntity
  8
Skizziergeometrie (ISO)
100
AcDbLine
 10
-40.0
 20
0.0
 30
0.0
 11
0.0
 21
0.0
 31
0.0
  0
LINE
  5
1E8
330
1E4
100
AcDbEntity
  8
Skizziergeometrie (ISO)
100
AcDbLine
 10
0.0
 20
0.0
 30
0.0
 11
0.0
 21
-11.00000000000001
 31
0.0
  0
LINE
  5
1E9
330
1E4
100
AcDbEntity
  8
Skizziergeometrie (ISO)
100
AcDbLine
 10
0.0
 20
-11.00000000000001
 30
0.0
 11
-40.0
 21
-11.00000000000001
 31
0.0
  0
LINE
  5
1EA
330
1E4
100
AcDbEntity
  8
Skizziergeometrie (ISO)
100
AcDbLine
 10
-40.0
 20
-11.00000000000001
 30
0.0
 11
-40.0
 21
0.0
 31
0.0
  0
MTEXT
  5
1EB
102
{ACAD_XDICTIONARY
360
75C
102
}
330
1E4
100
AcDbEntity
  8
Symbol (ISO)
100
AcDbMText
 10
-38.15352297610843
 20
-7.813772168203421
 30
0.0
 40
3.499999940395355
 41
69.99999999999992
 46
0.0
 71
     4
 72
     1
  1
{\H0.71429x;Hartverchromt\PSchichtdicke 15-20 \fSymbol|b0|i0|c2|p18;m\H1.5044x; \H0.79761x;\P\fISOCPEUR|b0|i0|c0|p34; \H1.5099x; \H0.66228x;\P\H1.659x; }
  7
Notiztext (DIN)
 73
     1
 44
0.5901533365249634
  0
ENDBLK
  5
1E6
330
1E4
100
AcDbEntity
  8
0
100
AcDbBlockEnd
  0
BLOCK
  5
1ED
330
1EC
100
AcDbEntity
  8
0
100
AcDbBlockBegin
  2
Nicht Freigegeben
 70
     0
 10
0.0
 20
0.0
 30
0.0
  3
Nicht Freigegeben
  1

  0
MTEXT
  5
1EF
102
{ACAD_XDICTIONARY
360
75E
102
}
330
1EC
100
AcDbEntity
  8
Symbol (ISO)
100
AcDbMText
 10
-81.85713768005371
 20
0.0
 30
0.0
 40
3.499999940395355
 41
187.8098945433215
 46
0.0
 71
     4
 72
     1
  1
{\H2x;Nur zur Information\H0.35714x;\P\H5.6x;Nicht Freigegeben !}
  7
Notiztext (DIN)
 73
     1
 44
1.088315844535827
  0
ENDBLK
  5
1EE
330
1EC
100
AcDbEntity
  8
0
100
AcDbBlockEnd
  0
BLOCK
  5
1F1
330
1F0
100
AcDbEntity
  8
0
100
AcDbBlockBegin
  2
Außen Werkstückkanten 0_1
 70
     0
 10
0.0
 20
0.0
 30
0.0
  3
Außen Werkstückkanten 0_1
  1

  0
LINE
  5
1F3
330
1F0
100
AcDbEntity
  8
Skizziergeometrie (ISO)
100
AcDbLine
 10
-13.0
 20
-3.000000000000024
 30
0.0
 11
-3.000000000000007
 21
-3.000000000000007
 31
0.0
  0
LINE
  5
1F4
330
1F0
100
AcDbEntity
  8
Skizziergeometrie (ISO)
100
AcDbLine
 10
-3.000000000000007
 20
-3.000000000000007
 30
0.0
 11
-3.000000000000042
 21
-13.0
 31
0.0
  0
LINE
  5
1F5
330
1F0
100
AcDbEntity
  8
Skizziergeometrie (ISO)
100
AcDbLine
 10
-3.000000000000007
 20
-3.000000000000007
 30
0.0
 11
3.000000000000007
 21
3.000000000000007
 31
0.0
  0
LINE
  5
1F6
330
1F0
100
AcDbEntity
  8
Skizziergeometrie (ISO)
100
AcDbLine
 10
2.999999999999971
 20
13.0
 30
0.0
 11
3.000000000000007
 21
3.000000000000007
 31
0.0
  0
LINE
  5
1F7
330
1F0
100
AcDbEntity
  8
Skizziergeometrie (ISO)
100
AcDbLine
 10
3.000000000000007
 20
3.000000000000007
 30
0.0
 11
13.0
 21
3.000000000000007
 31
0.0
  0
LINE
  5
1F8
330
1F0
100
AcDbEntity
  8
Skizziergeometrie (ISO)
100
AcDbLine
 10
-3.000000000000007
 20
-3.000000000000007
 30
0.0
 11
-1.585786437626914
 21
-0.8786796564403509
 31
0.0
  0
LINE
  5
1F9
330
1F0
100
AcDbEntity
  8
Skizziergeometrie (ISO)
100
AcDbLine
 10
-3.000000000000007
 20
-3.000000000000007
 30
0.0
 11
-0.8786796564403331
 21
-1.585786437626914
 31
0.0
  0
LINE
  5
1FA
330
1F0
100
AcDbEntity
  8
Skizziergeometrie (ISO)
100
AcDbLine
 10
-0.8786796564403331
 20
-1.585786437626914
 30
0.0
 11
-1.585786437626914
 21
-0.8786796564403509
 31
0.0
  0
MTEXT
  5
1FB
330
1F0
100
AcDbEntity
  8
Symbol (ISO)
100
AcDbMText
 10
3.318536116892438
 20
13.88997021779468
 30
0.0
 40
3.499999940395355
 41
20.02001276753013
 46
0.0
 71
     1
 72
     1
  1
-0,10\P-0,05
  7
Notiztext (DIN)
 73
     2
 44
1.068348050117492
  0
ENDBLK
  5
1F2
330
1F0
100
AcDbEntity
  8
0
100
AcDbBlockEnd
  0
BLOCK
  5
1FD
330
1FC
100
AcDbEntity
  8
0
100
AcDbBlockBegin
  2
Innen Werkstückkanten 0_1
 70
     0
 10
0.0
 20
0.0
 30
0.0
  3
Innen Werkstückkanten 0_1
  1

  0
LINE
  5
1FF
330
1FC
100
AcDbEntity
  8
Skizziergeometrie (ISO)
100
AcDbLine
 10
-8.535533905932695
 20
-8.535533905932748
 30
0.0
 11
-6.414213562373021
 21
-7.121320343559638
 31
0.0
  0
LINE
  5
200
330
1FC
100
AcDbEntity
  8
Skizziergeometrie (ISO)
100
AcDbLine
 10
-8.535533905932695
 20
-8.535533905932748
 30
0.0
 11
-7.121320343559602
 21
-6.414213562373074
 31
0.0
  0
LINE
  5
201
330
1FC
100
AcDbEntity
  8
Skizziergeometrie (ISO)
100
AcDbLine
 10
-6.414213562373021
 20
-7.121320343559638
 30
0.0
 11
-7.121320343559602
 21
-6.414213562373074
 31
0.0
  0
LINE
  5
202
330
1FC
100
AcDbEntity
  8
Skizziergeometrie (ISO)
100
AcDbLine
 10
-8.535533905932695
 20
-8.535533905932748
 30
0.0
 11
-1.464466094067269
 21
-1.464466094067233
 31
0.0
  0
LINE
  5
203
330
1FC
100
AcDbEntity
  8
Skizziergeometrie (ISO)
100
AcDbLine
 10
-1.464466094067269
 20
-1.464466094067233
 30
0.0
 11
8.53553390593273
 21
-1.464466094067233
 31
0.0
  0
LINE
  5
204
330
1FC
100
AcDbEntity
  8
Skizziergeometrie (ISO)
100
AcDbLine
 10
-1.464466094067304
 20
8.535533905932766
 30
0.0
 11
-1.464466094067269
 21
-1.464466094067233
 31
0.0
  0
LINE
  5
205
330
1FC
100
AcDbEntity
  8
Skizziergeometrie (ISO)
100
AcDbLine
 10
-8.535533905932695
 20
-8.535533905932748
 30
0.0
 11
-8.53553390593273
 21
1.464466094067251
 31
0.0
  0
LINE
  5
206
330
1FC
100
AcDbEntity
  8
Skizziergeometrie (ISO)
100
AcDbLine
 10
-8.535533905932695
 20
-8.535533905932748
 30
0.0
 11
1.464466094067304
 21
-8.535533905932766
 31
0.0
  0
MTEXT
  5
207
330
1FC
100
AcDbEntity
  8
Symbol (ISO)
100
AcDbMText
 10
-0.8419649278788554
 20
9.466463381905523
 30
0.0
 40
3.499999940395355
 41
20.02001276753013
 46
0.0
 71
     1
 72
     1
  1
+0,10\P+0,05
  7
Notiztext (DIN)
 73
     2
 44
1.068348050117492
  0
ENDBLK
  5
1FE
330
1FC
100
AcDbEntity
  8
0
100
AcDbBlockEnd
  0
BLOCK
  5
209
330
208
100
AcDbEntity
  8
0
100
AcDbBlockBegin
  2
Außen Werkstückkanten 0_2
 70
     0
 10
0.0
 20
0.0
 30
0.0
  3
Außen Werkstückkanten 0_2
  1

  0
LINE
  5
20B
330
208
100
AcDbEntity
  8
Skizziergeometrie (ISO)
100
AcDbLine
 10
-13.0
 20
-3.000000000000024
 30
0.0
 11
-3.000000000000007
 21
-3.000000000000007
 31
0.0
  0
LINE
  5
20C
330
208
100
AcDbEntity
  8
Skizziergeometrie (ISO)
100
AcDbLine
 10
-3.000000000000007
 20
-3.000000000000007
 30
0.0
 11
-3.000000000000042
 21
-13.0
 31
0.0
  0
LINE
  5
20D
330
208
100
AcDbEntity
  8
Skizziergeometrie (ISO)
100
AcDbLine
 10
-3.000000000000007
 20
-3.000000000000007
 30
0.0
 11
3.000000000000007
 21
3.000000000000007
 31
0.0
  0
LINE
  5
20E
330
208
100
AcDbEntity
  8
Skizziergeometrie (ISO)
100
AcDbLine
 10
2.999999999999971
 20
13.0
 30
0.0
 11
3.000000000000007
 21
3.000000000000007
 31
0.0
  0
LINE
  5
20F
330
208
100
AcDbEntity
  8
Skizziergeometrie (ISO)
100
AcDbLine
 10
3.000000000000007
 20
3.000000000000007
 30
0.0
 11
13.0
 21
3.000000000000007
 31
0.0
  0
LINE
  5
210
330
208
100
AcDbEntity
  8
Skizziergeometrie (ISO)
100
AcDbLine
 10
-3.000000000000007
 20
-3.000000000000007
 30
0.0
 11
-1.585786437626914
 21
-0.8786796564403509
 31
0.0
  0
LINE
  5
211
330
208
100
AcDbEntity
  8
Skizziergeometrie (ISO)
100
AcDbLine
 10
-3.000000000000007
 20
-3.000000000000007
 30
0.0
 11
-0.8786796564403331
 21
-1.585786437626914
 31
0.0
  0
LINE
  5
212
330
208
100
AcDbEntity
  8
Skizziergeometrie (ISO)
100
AcDbLine
 10
-0.8786796564403331
 20
-1.585786437626914
 30
0.0
 11
-1.585786437626914
 21
-0.8786796564403509
 31
0.0
  0
MTEXT
  5
213
330
208
100
AcDbEntity
  8
Symbol (ISO)
100
AcDbMText
 10
3.318536116892438
 20
13.88997021779468
 30
0.0
 40
3.499999940395355
 41
20.02001276753013
 46
0.0
 71
     1
 72
     1
  1
-0,20\P-0,05
  7
Notiztext (DIN)
 73
     2
 44
1.068348050117492
  0
ENDBLK
  5
20A
330
208
100
AcDbEntity
  8
0
100
AcDbBlockEnd
  0
BLOCK
  5
215
330
214
100
AcDbEntity
  8
0
100
AcDbBlockBegin
  2
Innen Werkstückkanten 0_2
 70
     0
 10
0.0
 20
0.0
 30
0.0
  3
Innen Werkstückkanten 0_2
  1

  0
LINE
  5
217
330
214
100
AcDbEntity
  8
Skizziergeometrie (ISO)
100
AcDbLine
 10
-8.535533905932695
 20
-8.535533905932748
 30
0.0
 11
-6.414213562373021
 21
-7.121320343559638
 31
0.0
  0
LINE
  5
218
330
214
100
AcDbEntity
  8
Skizziergeometrie (ISO)
100
AcDbLine
 10
-8.535533905932695
 20
-8.535533905932748
 30
0.0
 11
-7.121320343559602
 21
-6.414213562373074
 31
0.0
  0
LINE
  5
219
330
214
100
AcDbEntity
  8
Skizziergeometrie (ISO)
100
AcDbLine
 10
-6.414213562373021
 20
-7.121320343559638
 30
0.0
 11
-7.121320343559602
 21
-6.414213562373074
 31
0.0
  0
LINE
  5
21A
330
214
100
AcDbEntity
  8
Skizziergeometrie (ISO)
100
AcDbLine
 10
-8.535533905932695
 20
-8.535533905932748
 30
0.0
 11
-1.464466094067269
 21
-1.464466094067233
 31
0.0
  0
LINE
  5
21B
330
214
100
AcDbEntity
  8
Skizziergeometrie (ISO)
100
AcDbLine
 10
-1.464466094067269
 20
-1.464466094067233
 30
0.0
 11
8.53553390593273
 21
-1.464466094067233
 31
0.0
  0
LINE
  5
21C
330
214
100
AcDbEntity
  8
Skizziergeometrie (ISO)
100
AcDbLine
 10
-1.464466094067304
 20
8.535533905932766
 30
0.0
 11
-1.464466094067269
 21
-1.464466094067233
 31
0.0
  0
LINE
  5
21D
330
214
100
AcDbEntity
  8
Skizziergeometrie (ISO)
100
AcDbLine
 10
-8.535533905932695
 20
-8.535533905932748
 30
0.0
 11
-8.53553390593273
 21
1.464466094067251
 31
0.0
  0
LINE
  5
21E
330
214
100
AcDbEntity
  8
Skizziergeometrie (ISO)
100
AcDbLine
 10
-8.535533905932695
 20
-8.535533905932748
 30
0.0
 11
1.464466094067304
 21
-8.535533905932766
 31
0.0
  0
MTEXT
  5
21F
330
214
100
AcDbEntity
  8
Symbol (ISO)
100
AcDbMText
 10
-0.8419649278788554
 20
9.466463381905523
 30
0.0
 40
3.499999940395355
 41
20.02001276753013
 46
0.0
 71
     1
 72
     1
  1
+0,20\P+0,05
  7
Notiztext (DIN)
 73
     2
 44
1.068348050117492
  0
ENDBLK
  5
216
330
214
100
AcDbEntity
  8
0
100
AcDbBlockEnd
  0
BLOCK
  5
221
330
220
100
AcDbEntity
  8
0
100
AcDbBlockBegin
  2
Ölsorten
 70
     2
 10
0.0
 20
0.0
 30
0.0
  3
Ölsorten
  1

  0
LINE
  5
223
330
220
100
AcDbEntity
  8
Skizziergeometrie (ISO)
100
AcDbLine
 10
54.00000000000002
 20
73.50000000000005
 30
0.0
 11
-53.99999999999998
 21
73.50000000000005
 31
0.0
  0
LINE
  5
224
330
220
100
AcDbEntity
  8
Skizziergeometrie (ISO)
100
AcDbLine
 10
54.00000000000002
 20
66.50000000000003
 30
0.0
 11
-53.99999999999998
 21
66.50000000000005
 31
0.0
  0
LINE
  5
225
330
220
100
AcDbEntity
  8
Skizziergeometrie (ISO)
100
AcDbLine
 10
-53.99999999999999
 20
66.50000000000005
 30
0.0
 11
-53.99999999999999
 21
73.50000000000005
 31
0.0
  0
LINE
  5
226
330
220
100
AcDbEntity
  8
Skizziergeometrie (ISO)
100
AcDbLine
 10
-53.99999999999999
 20
66.50000000000005
 30
0.0
 11
54.00000000000002
 21
66.50000000000003
 31
0.0
  0
LINE
  5
227
330
220
100
AcDbEntity
  8
Skizziergeometrie (ISO)
100
AcDbLine
 10
-53.99999999999999
 20
59.50000000000002
 30
0.0
 11
54.00000000000002
 21
59.50000000000002
 31
0.0
  0
LINE
  5
228
330
220
100
AcDbEntity
  8
Skizziergeometrie (ISO)
100
AcDbLine
 10
-53.99999999999999
 20
59.50000000000002
 30
0.0
 11
-53.99999999999999
 21
66.50000000000005
 31
0.0
  0
LINE
  5
229
330
220
100
AcDbEntity
  8
Skizziergeometrie (ISO)
100
AcDbLine
 10
-53.99999999999998
 20
31.50000000000002
 30
0.0
 11
54.00000000000002
 21
31.50000000000002
 31
0.0
  0
LINE
  5
22A
330
220
100
AcDbEntity
  8
Skizziergeometrie (ISO)
100
AcDbLine
 10
-53.99999999999998
 20
31.50000000000002
 30
0.0
 11
-53.99999999999999
 21
38.50000000000003
 31
0.0
  0
LINE
  5
22B
330
220
100
AcDbEntity
  8
Skizziergeometrie (ISO)
100
AcDbLine
 10
-53.99999999999999
 20
38.50000000000003
 30
0.0
 11
54.00000000000002
 21
38.50000000000003
 31
0.0
  0
LINE
  5
22C
330
220
100
AcDbEntity
  8
Skizziergeometrie (ISO)
100
AcDbLine
 10
-53.99999999999999
 20
38.50000000000003
 30
0.0
 11
-53.99999999999999
 21
45.50000000000003
 31
0.0
  0
LINE
  5
22D
330
220
100
AcDbEntity
  8
Skizziergeometrie (ISO)
100
AcDbLine
 10
-53.99999999999999
 20
45.50000000000003
 30
0.0
 11
54.00000000000002
 21
45.50000000000003
 31
0.0
  0
LINE
  5
22E
330
220
100
AcDbEntity
  8
Skizziergeometrie (ISO)
100
AcDbLine
 10
-53.99999999999999
 20
45.50000000000003
 30
0.0
 11
-53.99999999999999
 21
52.50000000000003
 31
0.0
  0
LINE
  5
22F
330
220
100
AcDbEntity
  8
Skizziergeometrie (ISO)
100
AcDbLine
 10
-53.99999999999999
 20
52.50000000000003
 30
0.0
 11
54.00000000000002
 21
52.50000000000003
 31
0.0
  0
LINE
  5
230
330
220
100
AcDbEntity
  8
Skizziergeometrie (ISO)
100
AcDbLine
 10
-53.99999999999999
 20
52.50000000000003
 30
0.0
 11
-53.99999999999999
 21
59.50000000000002
 31
0.0
  0
LINE
  5
231
330
220
100
AcDbEntity
  8
Skizziergeometrie (ISO)
100
AcDbLine
 10
-53.99999999999999
 20
3.499999999999996
 30
0.0
 11
54.00000000000002
 21
3.499999999999996
 31
0.0
  0
LINE
  5
232
330
220
100
AcDbEntity
  8
Skizziergeometrie (ISO)
100
AcDbLine
 10
-53.99999999999999
 20
10.5
 30
0.0
 11
54.00000000000002
 21
10.5
 31
0.0
  0
LINE
  5
233
330
220
100
AcDbEntity
  8
Skizziergeometrie (ISO)
100
AcDbLine
 10
-53.99999999999999
 20
17.50000000000001
 30
0.0
 11
54.00000000000002
 21
17.50000000000001
 31
0.0
  0
LINE
  5
234
330
220
100
AcDbEntity
  8
Skizziergeometrie (ISO)
100
AcDbLine
 10
-53.99999999999999
 20
24.50000000000003
 30
0.0
 11
54.00000000000002
 21
24.50000000000003
 31
0.0
  0
LINE
  5
235
330
220
100
AcDbEntity
  8
Skizziergeometrie (ISO)
100
AcDbLine
 10
-53.99999999999998
 20
31.50000000000002
 30
0.0
 11
54.00000000000002
 21
31.50000000000002
 31
0.0
  0
LINE
  5
236
330
220
100
AcDbEntity
  8
Skizziergeometrie (ISO)
100
AcDbLine
 10
-53.99999999999999
 20
3.499999999999996
 30
0.0
 11
-53.99999999999998
 21
62.81560120947453
 31
0.0
  0
LINE
  5
237
330
220
100
AcDbEntity
  8
Skizziergeometrie (ISO)
100
AcDbLine
 10
-53.99999999999998
 20
31.50000000000002
 30
0.0
 11
-53.99999999999966
 21
-73.50000000000005
 31
0.0
  0
LINE
  5
238
330
220
100
AcDbEntity
  8
Skizziergeometrie (ISO)
100
AcDbLine
 10
-53.99999999999999
 20
24.50000000000003
 30
0.0
 11
-53.99999999999998
 21
31.50000000000002
 31
0.0
  0
LINE
  5
239
330
220
100
AcDbEntity
  8
Skizziergeometrie (ISO)
100
AcDbLine
 10
-53.99999999999999
 20
10.5
 30
0.0
 11
-53.99999999999999
 21
17.50000000000001
 31
0.0
  0
LINE
  5
23A
330
220
100
AcDbEntity
  8
Skizziergeometrie (ISO)
100
AcDbLine
 10
-53.99999999999999
 20
17.50000000000001
 30
0.0
 11
-53.99999999999999
 21
24.50000000000003
 31
0.0
  0
LINE
  5
23B
330
220
100
AcDbEntity
  8
Skizziergeometrie (ISO)
100
AcDbLine
 10
46.00000000000001
 20
73.50000000000005
 30
0.0
 11
46.00000000000001
 21
3.499999999999996
 31
0.0
  0
LINE
  5
23C
330
220
100
AcDbEntity
  8
Skizziergeometrie (ISO)
100
AcDbLine
 10
54.00000000000002
 20
73.50000000000005
 30
0.0
 11
54.00000000000002
 21
-73.50000000000005
 31
0.0
  0
LINE
  5
23D
330
220
100
AcDbEntity
  8
Skizziergeometrie (ISO)
100
AcDbLine
 10
3.000000000000007
 20
73.50000000000005
 30
0.0
 11
3.000000000000007
 21
-73.50000000000005
 31
0.0
  0
LINE
  5
23E
330
220
100
AcDbEntity
  8
Skizziergeometrie (ISO)
100
AcDbLine
 10
-53.99999999999999
 20
3.499999999999996
 30
0.0
 11
-53.9999999999998
 21
-45.50000000000007
 31
0.0
  0
LINE
  5
23F
330
220
100
AcDbEntity
  8
Skizziergeometrie (ISO)
100
AcDbLine
 10
-53.9999999999998
 20
-45.50000000000007
 30
0.0
 11
54.00000000000003
 21
-45.50000000000003
 31
0.0
  0
LINE
  5
240
330
220
100
AcDbEntity
  8
Skizziergeometrie (ISO)
100
AcDbLine
 10
46.00000000000001
 20
-73.50000000000005
 30
0.0
 11
46.00000000000001
 21
3.499999999999996
 31
0.0
  0
LINE
  5
241
330
220
100
AcDbEntity
  8
Skizziergeometrie (ISO)
100
AcDbLine
 10
-54.00000000000002
 20
-3.500000000000049
 30
0.0
 11
54.00000000000002
 21
-3.499999999999996
 31
0.0
  0
LINE
  5
242
330
220
100
AcDbEntity
  8
Skizziergeometrie (ISO)
100
AcDbLine
 10
-53.99999999999992
 20
-10.50000000000008
 30
0.0
 11
54.00000000000002
 21
-10.5
 31
0.0
  0
LINE
  5
243
330
220
100
AcDbEntity
  8
Skizziergeometrie (ISO)
100
AcDbLine
 10
-53.99999999999988
 20
-17.49999999999982
 30
0.0
 11
54.00000000000002
 21
-17.50000000000001
 31
0.0
  0
LINE
  5
244
330
220
100
AcDbEntity
  8
Skizziergeometrie (ISO)
100
AcDbLine
 10
-53.9999999999999
 20
-24.49999999999999
 30
0.0
 11
54.00000000000002
 21
-24.50000000000002
 31
0.0
  0
LINE
  5
245
330
220
100
AcDbEntity
  8
Skizziergeometrie (ISO)
100
AcDbLine
 10
-53.99999999999991
 20
-31.50000000000002
 30
0.0
 11
54.00000000000003
 21
-31.50000000000002
 31
0.0
  0
LINE
  5
246
330
220
100
AcDbEntity
  8
Skizziergeometrie (ISO)
100
AcDbLine
 10
-53.99999999999986
 20
-38.50000000000005
 30
0.0
 11
54.00000000000002
 21
-38.50000000000003
 31
0.0
  0
LINE
  5
247
330
220
100
AcDbEntity
  8
Skizziergeometrie (ISO)
100
AcDbLine
 10
-53.99999999999981
 20
-52.49999999999996
 30
0.0
 11
54.00000000000002
 21
-52.50000000000003
 31
0.0
  0
LINE
  5
248
330
220
100
AcDbEntity
  8
Skizziergeometrie (ISO)
100
AcDbLine
 10
-53.99999999999976
 20
-59.49999999999999
 30
0.0
 11
54.00000000000002
 21
-59.50000000000004
 31
0.0
  0
LINE
  5
249
330
220
100
AcDbEntity
  8
Skizziergeometrie (ISO)
100
AcDbLine
 10
-53.99999999999974
 20
-66.50000000000003
 30
0.0
 11
54.00000000000002
 21
-66.50000000000004
 31
0.0
  0
LINE
  5
24A
330
220
100
AcDbEntity
  8
Skizziergeometrie (ISO)
100
AcDbLine
 10
-53.99999999999966
 20
-73.50000000000005
 30
0.0
 11
54.00000000000003
 21
-73.50000000000005
 31
0.0
  0
MTEXT
  5
24B
330
220
100
AcDbEntity
  8
Symbol (ISO)
100
AcDbMText
 10
-49.0
 20
64.50000000000002
 30
0.0
 40
3.499999940395355
 41
0.0
 46
0.0
 71
     1
 72
     1
  1
SHC 630
  7
Notiztext (DIN)
 73
     1
 44
1.0
  0
MTEXT
  5
24C
330
220
100
AcDbEntity
  8
Symbol (ISO)
100
AcDbMText
 10
-48.99999999999998
 20
57.50000000000003
 30
0.0
 40
3.499999940395355
 41
0.0
 46
0.0
 71
     1
 72
     1
  1
HLP 46
  7
Notiztext (DIN)
 73
     1
 44
1.0
  0
MTEXT
  5
24D
330
220
100
AcDbEntity
  8
Symbol (ISO)
100
AcDbMText
 10
-48.99999999999998
 20
50.50000000000004
 30
0.0
 40
3.499999940395355
 41
0.0
 46
0.0
 71
     1
 72
     1
  1
HLP 220
  7
Notiztext (DIN)
 73
     1
 44
1.0
  0
MTEXT
  5
24E
330
220
100
AcDbEntity
  8
Symbol (ISO)
100
AcDbMText
 10
-48.99999999999999
 20
43.50000000000003
 30
0.0
 40
3.499999940395355
 41
0.0
 46
0.0
 71
     1
 72
     1
  1
Bartran
  7
Notiztext (DIN)
 73
     1
 44
1.0
  0
MTEXT
  5
24F
330
220
100
AcDbEntity
  8
Symbol (ISO)
100
AcDbMText
 10
-48.99999999999998
 20
29.50000000000003
 30
0.0
 40
3.499999940395355
 41
0.0
 46
0.0
 71
     1
 72
     1
  1
Nuto 320
  7
Notiztext (DIN)
 73
     1
 44
1.0
  0
MTEXT
  5
250
330
220
100
AcDbEntity
  8
Symbol (ISO)
100
AcDbMText
 10
-48.99999999999999
 20
36.50000000000004
 30
0.0
 40
3.499999940395355
 41
0.0
 46
0.0
 71
     1
 72
     1
  1
Puri 46
  7
Notiztext (DIN)
 73
     1
 44
1.0
  0
MTEXT
  5
251
330
220
100
AcDbEntity
  8
Symbol (ISO)
100
AcDbMText
 10
-48.99999999999998
 20
22.50000000000003
 30
0.0
 40
3.499999940395355
 41
0.0
 46
0.0
 71
     1
 72
     1
  1
SHC 224
  7
Notiztext (DIN)
 73
     1
 44
1.0
  0
MTEXT
  5
252
330
220
100
AcDbEntity
  8
Symbol (ISO)
100
AcDbMText
 10
-39.09914821339648
 20
73.50000000000005
 30
0.0
 40
3.499999940395355
 41
0.0
 46
0.0
 71
     2
 72
     1
  1
Ölsorten
  7
Notiztext (DIN)
 73
     1
 44
1.0
  0
MTEXT
  5
253
330
220
100
AcDbEntity
  8
Symbol (ISO)
100
AcDbMText
 10
22.75590905750731
 20
71.38536828881055
 30
0.0
 40
3.499999940395355
 41
0.0
 46
0.0
 71
     2
 72
     1
  1
Artikelnummer
  7
Notiztext (DIN)
 73
     1
 44
1.0
  0
MTEXT
  5
254
330
220
100
AcDbEntity
  8
Symbol (ISO)
100
AcDbMText
 10
-48.99999999999998
 20
15.50000000000002
 30
0.0
 40
3.499999940395355
 41
0.0
 46
0.0
 71
     1
 72
     1
  1
ATF Suffix
  7
Notiztext (DIN)
 73
     1
 44
1.0
  0
MTEXT
  5
255
330
220
100
AcDbEntity
  8
Symbol (ISO)
100
AcDbMText
 10
-48.99999999999998
 20
8.500000000000014
 30
0.0
 40
3.499999940395355
 41
0.0
 46
0.0
 71
     1
 72
     1
  1
Univis HVI 26
  7
Notiztext (DIN)
 73
     1
 44
1.0
  0
MTEXT
  5
256
330
220
100
AcDbEntity
  8
Symbol (ISO)
100
AcDbMText
 10
-48.99999999999998
 20
1.500000000000003
 30
0.0
 40
3.499999940395355
 41
0.0
 46
0.0
 71
     1
 72
     1
  1
Nuto H 68
  7
Notiztext (DIN)
 73
     1
 44
1.0
  0
MTEXT
  5
257
330
220
100
AcDbEntity
  8
Symbol (ISO)
100
AcDbMText
 10
-48.99999999999998
 20
-5.499999999999989
 30
0.0
 40
3.499999940395355
 41
0.0
 46
0.0
 71
     1
 72
     1
  1
Vebis K32
  7
Notiztext (DIN)
 73
     1
 44
1.0
  0
MTEXT
  5
258
330
220
100
AcDbEntity
  8
Symbol (ISO)
100
AcDbMText
 10
-48.99999999999998
 20
-12.5
 30
0.0
 40
3.499999940395355
 41
0.0
 46
0.0
 71
     1
 72
     1
  1
Vebis K68
  7
Notiztext (DIN)
 73
     1
 44
1.0
  0
MTEXT
  5
259
330
220
100
AcDbEntity
  8
Symbol (ISO)
100
AcDbMText
 10
-48.99999999999998
 20
-19.50000000000001
 30
0.0
 40
3.499999940395355
 41
0.0
 46
0.0
 71
     1
 72
     1
  1
HLP 32
  7
Notiztext (DIN)
 73
     1
 44
1.0
  0
MTEXT
  5
25A
330
220
100
AcDbEntity
  8
Symbol (ISO)
100
AcDbMText
 10
-48.99999999999998
 20
-26.50000000000002
 30
0.0
 40
3.499999940395355
 41
0.0
 46
0.0
 71
     1
 72
     1
  1
HLP 100
  7
Notiztext (DIN)
 73
     1
 44
1.0
  0
MTEXT
  5
25B
330
220
100
AcDbEntity
  8
Symbol (ISO)
100
AcDbMText
 10
-48.99999999999999
 20
-33.50000000000002
 30
0.0
 40
3.499999940395355
 41
0.0
 46
0.0
 71
     1
 72
     1
  1
AWH-M32
  7
Notiztext (DIN)
 73
     1
 44
1.0
  0
MTEXT
  5
25C
330
220
100
AcDbEntity
  8
Symbol (ISO)
100
AcDbMText
 10
-48.99999999999998
 20
-68.50000000000005
 30
0.0
 40
3.499999940395355
 41
0.0
 46
0.0
 71
     1
 72
     1
  1
Mobilgear SHC XMP 220
  7
Notiztext (DIN)
 73
     1
 44
1.0
  0
MTEXT
  5
25D
330
220
100
AcDbEntity
  8
Symbol (ISO)
100
AcDbMText
 10
-48.99999999999998
 20
-61.50000000000005
 30
0.0
 40
3.499999940395355
 41
0.0
 46
0.0
 71
     1
 72
     1
  1
Mobilgear SHC XMP 680
  7
Notiztext (DIN)
 73
     1
 44
1.0
  0
MTEXT
  5
25E
330
220
100
AcDbEntity
  8
Symbol (ISO)
100
AcDbMText
 10
-48.99999999999998
 20
-54.50000000000003
 30
0.0
 40
3.499999940395355
 41
0.0
 46
0.0
 71
     1
 72
     1
  1
SHC 639
  7
Notiztext (DIN)
 73
     1
 44
1.0
  0
MTEXT
  5
25F
330
220
100
AcDbEntity
  8
Symbol (ISO)
100
AcDbMText
 10
-48.99999999999998
 20
-47.50000000000003
 30
0.0
 40
3.499999940395355
 41
0.0
 46
0.0
 71
     1
 72
     1
  1
Vitaminöl ZH-M
  7
Notiztext (DIN)
 73
     1
 44
1.0
  0
MTEXT
  5
260
330
220
100
AcDbEntity
  8
Symbol (ISO)
100
AcDbMText
 10
-48.99999999999998
 20
-40.50000000000003
 30
0.0
 40
3.499999940395355
 41
0.0
 46
0.0
 71
     1
 72
     1
  1
AWH-M68
  7
Notiztext (DIN)
 73
     1
 44
1.0
  0
ATTDEF
  5
261
102
{ACAD_XDICTIONARY
360
760
102
}
330
220
100
AcDbEntity
  8
Symbol (ISO)
100
AcDbText
 10
48.74218633071293
 20
-71.96886229229564
 30
0.0
 40
3.499999940395355
  1

  7
Notiztext (DIN)
 11
48.74218633071293
 21
-68.46886235190028
 31
0.0
100
AcDbAttributeDefinition
280
     0
  3
Mobilgear SHC XMP 220
  2
Mobilgear_SHC_XMP_220
 70
     0
 74
     3
280
     0
  0
ATTDEF
  5
262
102
{ACAD_XDICTIONARY
360
763
102
}
330
220
100
AcDbEntity
  8
Symbol (ISO)
100
AcDbText
 10
48.28724555430017
 20
-64.71134335114879
 30
0.0
 40
3.499999940395355
  1

  7
Notiztext (DIN)
 11
48.28724555430017
 21
-61.21134341075343
 31
0.0
100
AcDbAttributeDefinition
280
     0
  3
Mobilgear SHC XMP 680
  2
Mobilgear_SHC_XMP_680
 70
     0
 74
     3
280
     0
  0
ATTDEF
  5
263
102
{ACAD_XDICTIONARY
360
766
102
}
330
220
100
AcDbEntity
  8
Symbol (ISO)
100
AcDbText
 10
48.22823664392223
 20
-58.16628411991921
 30
0.0
 40
3.499999940395355
  1

  7
Notiztext (DIN)
 11
48.22823664392223
 21
-54.66628417952385
 31
0.0
100
AcDbAttributeDefinition
280
     0
  3
SHC 639
  2
SHC_639
 70
     0
 74
     3
280
     0
  0
ATTDEF
  5
264
102
{ACAD_XDICTIONARY
360
769
102
}
330
220
100
AcDbEntity
  8
Symbol (ISO)
100
AcDbText
 10
48.10913062451696
 20
-51.0858419456516
 30
0.0
 40
3.499999940395355
  1

  7
Notiztext (DIN)
 11
48.10913062451696
 21
-47.58584200525625
 31
0.0
100
AcDbAttributeDefinition
280
     0
  3
Vitaminöl ZH-M
  2
Vitaminöl_ZH-M
 70
     0
 74
     3
280
     0
  0
ATTDEF
  5
265
102
{ACAD_XDICTIONARY
360
76C
102
}
330
220
100
AcDbEntity
  8
Symbol (ISO)
100
AcDbText
 10
47.99160518675154
 20
-44.22682021382299
 30
0.0
 40
3.499999940395355
  1

  7
Notiztext (DIN)
 11
47.99160518675154
 21
-40.72682027342763
 31
0.0
100
AcDbAttributeDefinition
280
     0
  3
AWH-M68
  2
AWH-M68
 70
     0
 74
     3
280
     0
  0
ATTDEF
  5
266
102
{ACAD_XDICTIONARY
360
76F
102
}
330
220
100
AcDbEntity
  8
Symbol (ISO)
100
AcDbText
 10
48.09031610359792
 20
-37.0293983861994
 30
0.0
 40
3.499999940395355
  1

  7
Notiztext (DIN)
 11
48.09031610359792
 21
-33.52939844580405
 31
0.0
100
AcDbAttributeDefinition
280
     0
  3
AWH-M32
  2
AWH-M32
 70
     0
 74
     3
280
     0
  0
ATTDEF
  5
267
102
{ACAD_XDICTIONARY
360
772
102
}
330
220
100
AcDbEntity
  8
Symbol (ISO)
100
AcDbText
 10
48.48827682435022
 20
-29.84764987125576
 30
0.0
 40
3.499999940395355
  1

  7
Notiztext (DIN)
 11
48.48827682435022
 21
-26.34764993086041
 31
0.0
100
AcDbAttributeDefinition
280
     0
  3
HLP 100
  2
HLP_100
 70
     0
 74
     3
280
     0
  0
ATTDEF
  5
268
102
{ACAD_XDICTIONARY
360
775
102
}
330
220
100
AcDbEntity
  8
Symbol (ISO)
100
AcDbText
 10
48.48827682435022
 20
-22.84764987125575
 30
0.0
 40
3.499999940395355
  1

  7
Notiztext (DIN)
 11
48.48827682435022
 21
-19.34764993086039
 31
0.0
100
AcDbAttributeDefinition
280
     0
  3
HLP 32
  2
HLP_32
 70
     0
 74
     3
280
     0
  0
ATTDEF
  5
269
102
{ACAD_XDICTIONARY
360
778
102
}
330
220
100
AcDbEntity
  8
Symbol (ISO)
100
AcDbText
 10
48.48827682435018
 20
-15.49043525564339
 30
0.0
 40
3.499999940395355
  1

  7
Notiztext (DIN)
 11
48.48827682435018
 21
-11.99043531524804
 31
0.0
100
AcDbAttributeDefinition
280
     0
  3
Vebis K68
  2
Vebis_K68
 70
     0
 74
     3
280
     0
  0
ATTDEF
  5
26A
102
{ACAD_XDICTIONARY
360
77B
102
}
330
220
100
AcDbEntity
  8
Symbol (ISO)
100
AcDbText
 10
48.48827682435018
 20
-8.490435255643387
 30
0.0
 40
3.499999940395355
  1

  7
Notiztext (DIN)
 11
48.48827682435018
 21
-4.990435315248031
 31
0.0
100
AcDbAttributeDefinition
280
     0
  3
Vebis K32
  2
Vebis_K32
 70
     0
 74
     3
280
     0
  0
ATTDEF
  5
26B
102
{ACAD_XDICTIONARY
360
77E
102
}
330
220
100
AcDbEntity
  8
Symbol (ISO)
100
AcDbText
 10
48.48827682435018
 20
-1.490435255643394
 30
0.0
 40
3.499999940395355
  1

  7
Notiztext (DIN)
 11
48.48827682435018
 21
2.009564684751961
 31
0.0
100
AcDbAttributeDefinition
280
     0
  3
Nuto H 68
  2
Nuto_H_68
 70
     0
 74
     3
280
     0
  0
ATTDEF
  5
26C
102
{ACAD_XDICTIONARY
360
781
102
}
330
220
100
AcDbEntity
  8
Symbol (ISO)
100
AcDbText
 10
48.48827682435018
 20
5.509564744356616
 30
0.0
 40
3.499999940395355
  1

  7
Notiztext (DIN)
 11
48.48827682435018
 21
9.009564684751971
 31
0.0
100
AcDbAttributeDefinition
280
     0
  3
Univis HVI 26
  2
Univis_HVI_26
 70
     0
 74
     3
280
     0
  0
ATTDEF
  5
26D
102
{ACAD_XDICTIONARY
360
784
102
}
330
220
100
AcDbEntity
  8
Symbol (ISO)
100
AcDbText
 10
48.13106219880292
 20
12.15235012874428
 30
0.0
 40
3.499999940395355
  1

  7
Notiztext (DIN)
 11
48.13106219880292
 21
15.65235006913964
 31
0.0
100
AcDbAttributeDefinition
280
     0
  3
ATF Suffix
  2
ATF_Suffix
 70
     0
 74
     3
280
     0
  0
ATTDEF
  5
26E
102
{ACAD_XDICTIONARY
360
787
102
}
330
220
100
AcDbEntity
  8
Symbol (ISO)
100
AcDbText
 10
48.13106219880292
 20
19.15235012874429
 30
0.0
 40
3.499999940395355
  1

  7
Notiztext (DIN)
 11
48.13106219880292
 21
22.65235006913965
 31
0.0
100
AcDbAttributeDefinition
280
     0
  3
SHC 224
  2
SHC_224
 70
     0
 74
     3
280
     0
  0
ATTDEF
  5
26F
102
{ACAD_XDICTIONARY
360
78A
102
}
330
220
100
AcDbEntity
  8
Symbol (ISO)
100
AcDbText
 10
48.13106219880292
 20
26.15235012874429
 30
0.0
 40
3.499999940395355
  1

  7
Notiztext (DIN)
 11
48.13106219880292
 21
29.65235006913964
 31
0.0
100
AcDbAttributeDefinition
280
     0
  3
Nuto 320
  2
Nuto_320
 70
     0
 74
     3
280
     0
  0
ATTDEF
  5
270
102
{ACAD_XDICTIONARY
360
78D
102
}
330
220
100
AcDbEntity
  8
Symbol (ISO)
100
AcDbText
 10
47.91408360032305
 20
33.29948990687301
 30
0.0
 40
3.499999940395355
  1

  7
Notiztext (DIN)
 11
47.91408360032305
 21
36.79948984726836
 31
0.0
100
AcDbAttributeDefinition
280
     0
  3
Puri 46
  2
Puri_46
 70
     0
 74
     3
280
     0
  0
ATTDEF
  5
271
102
{ACAD_XDICTIONARY
360
790
102
}
330
220
100
AcDbEntity
  8
Symbol (ISO)
100
AcDbText
 10
48.2448721495855
 20
40.11416963288027
 30
0.0
 40
3.499999940395355
  1

  7
Notiztext (DIN)
 11
48.2448721495855
 21
43.61416957327563
 31
0.0
100
AcDbAttributeDefinition
280
     0
  3
Bartran
  2
Bartran
 70
     0
 74
     3
280
     0
  0
ATTDEF
  5
272
102
{ACAD_XDICTIONARY
360
793
102
}
330
220
100
AcDbEntity
  8
Symbol (ISO)
100
AcDbText
 10
48.41608510706956
 20
46.50231624034169
 30
0.0
 40
3.499999940395355
  1

  7
Notiztext (DIN)
 11
48.41608510706956
 21
50.00231618073705
 31
0.0
100
AcDbAttributeDefinition
280
     0
  3
HLP 220
  2
HLP_220
 70
     0
 74
     3
280
     0
  0
ATTDEF
  5
273
102
{ACAD_XDICTIONARY
360
796
102
}
330
220
100
AcDbEntity
  8
Symbol (ISO)
100
AcDbText
 10
48.18775408967403
 20
53.96613599287291
 30
0.0
 40
3.499999940395355
  1

  7
Notiztext (DIN)
 11
48.18775408967403
 21
57.46613593326826
 31
0.0
100
AcDbAttributeDefinition
280
     0
  3
HLP 46
  2
HLP_46
 70
     0
 74
     3
280
     0
  0
ATTDEF
  5
274
102
{ACAD_XDICTIONARY
360
799
102
}
330
220
100
AcDbEntity
  8
Symbol (ISO)
100
AcDbText
 10
48.28663276922073
 20
61.06859351727372
 30
0.0
 40
3.499999940395355
  1

  7
Notiztext (DIN)
 11
48.28663276922073
 21
64.56859345766908
 31
0.0
100
AcDbAttributeDefinition
280
     0
  3
SHC 630
  2
SHC_630
 70
     0
 74
     3
280
     0
  0
MTEXT
  5
275
330
220
100
AcDbEntity
  8
Symbol (ISO)
100
AcDbMText
 10
4.50000000000001
 20
64.61119790050003
 30
0.0
 40
3.499999940395355
 41
0.0
 46
0.0
 71
     1
 72
     1
  1
SHC 630
  7
Notiztext (DIN)
 73
     1
 44
1.0
  0
MTEXT
  5
276
330
220
100
AcDbEntity
  8
Symbol (ISO)
100
AcDbMText
 10
4.50000000000001
 20
57.3792880242345
 30
0.0
 40
3.499999940395355
 41
0.0
 46
0.0
 71
     1
 72
     1
  1
BET/STO/OEL/008
  7
Notiztext (DIN)
 73
     1
 44
1.0
  0
MTEXT
  5
277
330
220
100
AcDbEntity
  8
Symbol (ISO)
100
AcDbMText
 10
4.50000000000001
 20
50.96294102882545
 30
0.0
 40
3.499999940395355
 41
0.0
 46
0.0
 71
     1
 72
     1
  1
BET/STO/OEL/001
  7
Notiztext (DIN)
 73
     1
 44
1.0
  0
MTEXT
  5
278
330
220
100
AcDbEntity
  8
Symbol (ISO)
100
AcDbMText
 10
4.50000000000001
 20
43.87066131482932
 30
0.0
 40
3.499999940395355
 41
0.0
 46
0.0
 71
     1
 72
     1
  1
BET/STO/OEL/036
  7
Notiztext (DIN)
 73
     1
 44
1.0
  0
MTEXT
  5
279
330
220
100
AcDbEntity
  8
Symbol (ISO)
100
AcDbMText
 10
4.50000000000001
 20
29.46954920729322
 30
0.0
 40
3.499999940395355
 41
0.0
 46
0.0
 71
     1
 72
     1
  1
BET/STO/OEL/027
  7
Notiztext (DIN)
 73
     1
 44
1.0
  0
MTEXT
  5
27A
330
220
100
AcDbEntity
  8
Symbol (ISO)
100
AcDbMText
 10
4.50000000000001
 20
16.19038459020862
 30
0.0
 40
3.499999940395355
 41
0.0
 46
0.0
 71
     1
 72
     1
  1
BET/STO/OEL/002
  7
Notiztext (DIN)
 73
     1
 44
1.0
  0
MTEXT
  5
27B
330
220
100
AcDbEntity
  8
Symbol (ISO)
100
AcDbMText
 10
4.50000000000001
 20
8.913558748917509
 30
0.0
 40
3.499999940395355
 41
0.0
 46
0.0
 71
     1
 72
     1
  1
BET/STO/OEL/003
  7
Notiztext (DIN)
 73
     1
 44
1.0
  0
MTEXT
  5
27C
330
220
100
AcDbEntity
  8
Symbol (ISO)
100
AcDbMText
 10
4.50000000000001
 20
-5.501680013019161
 30
0.0
 40
3.499999940395355
 41
0.0
 46
0.0
 71
     1
 72
     1
  1
BET/STO/OEL/011
  7
Notiztext (DIN)
 73
     1
 44
1.0
  0
MTEXT
  5
27D
330
220
100
AcDbEntity
  8
Symbol (ISO)
100
AcDbMText
 10
4.50000000000001
 20
-12.57192031470969
 30
0.0
 40
3.499999940395355
 41
0.0
 46
0.0
 71
     1
 72
     1
  1
BET/STO/OEL/013
  7
Notiztext (DIN)
 73
     1
 44
1.0
  0
MTEXT
  5
27E
330
220
100
AcDbEntity
  8
Symbol (ISO)
100
AcDbMText
 10
4.50000000000001
 20
-19.50219473614664
 30
0.0
 40
3.499999940395355
 41
0.0
 46
0.0
 71
     1
 72
     1
  1
BET/STO/OEL/016
  7
Notiztext (DIN)
 73
     1
 44
1.0
  0
MTEXT
  5
27F
330
220
100
AcDbEntity
  8
Symbol (ISO)
100
AcDbMText
 10
4.50000000000001
 20
-26.14703418899674
 30
0.0
 40
3.499999940395355
 41
0.0
 46
0.0
 71
     1
 72
     1
  1
BET/STO/OEL/017
  7
Notiztext (DIN)
 73
     1
 44
1.0
  0
MTEXT
  5
280
330
220
100
AcDbEntity
  8
Symbol (ISO)
100
AcDbMText
 10
4.50000000000001
 20
36.18445648357067
 30
0.0
 40
3.499999940395355
 41
0.0
 46
0.0
 71
     1
 72
     1
  1
BET/STO/OEL/028
  7
Notiztext (DIN)
 73
     1
 44
1.0
  0
MTEXT
  5
281
330
220
100
AcDbEntity
  8
Symbol (ISO)
100
AcDbMText
 10
4.50000000000001
 20
-33.47170773254664
 30
0.0
 40
3.499999940395355
 41
0.0
 46
0.0
 71
     1
 72
     1
  1
BET/STO/OEL/032
  7
Notiztext (DIN)
 73
     1
 44
1.0
  0
MTEXT
  5
282
330
220
100
AcDbEntity
  8
Symbol (ISO)
100
AcDbMText
 10
4.50000000000001
 20
-40.76778473965177
 30
0.0
 40
3.499999940395355
 41
0.0
 46
0.0
 71
     1
 72
     1
  1
BET/STO/OEL/033
  7
Notiztext (DIN)
 73
     1
 44
1.0
  0
MTEXT
  5
283
330
220
100
AcDbEntity
  8
Symbol (ISO)
100
AcDbMText
 10
4.50000000000001
 20
-46.91108283767896
 30
0.0
 40
3.499999940395355
 41
0.0
 46
0.0
 71
     1
 72
     1
  1
BET/STO/OEL/034
  7
Notiztext (DIN)
 73
     1
 44
1.0
  0
MTEXT
  5
284
330
220
100
AcDbEntity
  8
Symbol (ISO)
100
AcDbMText
 10
4.50000000000001
 20
23.02948375520474
 30
0.0
 40
3.499999940395355
 41
0.0
 46
0.0
 71
     1
 72
     1
  1
BET/STO/OEL/035
  7
Notiztext (DIN)
 73
     1
 44
1.0
  0
MTEXT
  5
285
330
220
100
AcDbEntity
  8
Symbol (ISO)
100
AcDbMText
 10
4.50000000000001
 20
-53.8059161125846
 30
0.0
 40
3.499999940395355
 41
0.0
 46
0.0
 71
     1
 72
     1
  1
BET/STO/OEL/039
  7
Notiztext (DIN)
 73
     1
 44
1.0
  0
MTEXT
  5
286
330
220
100
AcDbEntity
  8
Symbol (ISO)
100
AcDbMText
 10
4.50000000000001
 20
-61.30373390369237
 30
0.0
 40
3.499999940395355
 41
0.0
 46
0.0
 71
     1
 72
     1
  1
BET/STO/OEL/039
  7
Notiztext (DIN)
 73
     1
 44
1.0
  0
MTEXT
  5
287
330
220
100
AcDbEntity
  8
Symbol (ISO)
100
AcDbMText
 10
4.50000000000001
 20
-68.84448445146768
 30
0.0
 40
3.499999940395355
 41
0.0
 46
0.0
 71
     1
 72
     1
  1
BET/STO/OEL/042
  7
Notiztext (DIN)
 73
     1
 44
1.0
  0
MTEXT
  5
288
330
220
100
AcDbEntity
  8
Symbol (ISO)
100
AcDbMText
 10
4.50000000000001
 20
1.826762230343437
 30
0.0
 40
3.499999940395355
 41
0.0
 46
0.0
 71
     1
 72
     1
  1
BET/STO/OEL/004
  7
Notiztext (DIN)
 73
     1
 44
1.0
  0
ENDBLK
  5
222
330
220
100
AcDbEntity
  8
0
100
AcDbBlockEnd
  0
BLOCK
  5
28A
330
289
100
AcDbEntity
  8
0
100
AcDbBlockBegin
  2
Zeichnungsnummer eingraviert
 70
     0
 10
0.0
 20
0.0
 30
0.0
  3
Zeichnungsnummer eingraviert
  1

  0
LINE
  5
28C
330
289
100
AcDbEntity
  8
Skizziergeometrie (ISO)
100
AcDbLine
 10
-50.0
 20
13.49399274657987
 30
0.0
 11
0.0
 21
13.49399274657987
 31
0.0
  0
LINE
  5
28D
330
289
100
AcDbEntity
  8
Skizziergeometrie (ISO)
100
AcDbLine
 10
0.0
 20
13.49399274657987
 30
0.0
 11
0.0
 21
0.0
 31
0.0
  0
LINE
  5
28E
330
289
100
AcDbEntity
  8
Skizziergeometrie (ISO)
100
AcDbLine
 10
0.0
 20
0.0
 30
0.0
 11
-50.0
 21
0.0
 31
0.0
  0
LINE
  5
28F
330
289
100
AcDbEntity
  8
Skizziergeometrie (ISO)
100
AcDbLine
 10
-50.0
 20
0.0
 30
0.0
 11
-50.0
 21
13.49399274657987
 31
0.0
  0
MTEXT
  5
290
330
289
100
AcDbEntity
  8
Symbol (ISO)
100
AcDbMText
 10
-24.99999999999996
 20
3.735591916700968
 30
0.0
 40
3.499999940395355
 41
50.00000000000007
 46
0.0
 71
     5
 72
     1
  1
Zeichnungsnummer \Pgraviert/-gelasert\P 
  7
Notiztext (DIN)
 73
     2
 44
1.068348050117492
  0
ENDBLK
  5
28B
330
289
100
AcDbEntity
  8
0
100
AcDbBlockEnd
  0
BLOCK
  5
292
330
291
100
AcDbEntity
  8
0
100
AcDbBlockBegin
  2
Zeichnungsparameter
 70
     0
 10
0.0
 20
0.0
 30
0.0
  3
Zeichnungsparameter
  1

  0
LINE
  5
294
330
291
100
AcDbEntity
  8
Skizziergeometrie (ISO)
100
AcDbLine
 10
-35.0
 20
46.98644513033116
 30
0.0
 11
35.00000000000002
 21
46.98644513033055
 31
0.0
  0
LINE
  5
295
330
291
100
AcDbEntity
  8
Skizziergeometrie (ISO)
100
AcDbLine
 10
35.00000000000002
 20
41.98644513033055
 30
0.0
 11
-35.0
 21
41.98644513033116
 31
0.0
  0
LINE
  5
296
330
291
100
AcDbEntity
  8
Skizziergeometrie (ISO)
100
AcDbLine
 10
-35.0
 20
41.98644513033116
 30
0.0
 11
-35.0
 21
46.98644513033116
 31
0.0
  0
LINE
  5
297
330
291
100
AcDbEntity
  8
Skizziergeometrie (ISO)
100
AcDbLine
 10
-35.0
 20
41.98644513033116
 30
0.0
 11
35.00000000000002
 21
41.98644513033055
 31
0.0
  0
LINE
  5
298
330
291
100
AcDbEntity
  8
Skizziergeometrie (ISO)
100
AcDbLine
 10
35.00000000000002
 20
36.98644513033056
 30
0.0
 11
-35.0
 21
36.98644513033116
 31
0.0
  0
LINE
  5
299
330
291
100
AcDbEntity
  8
Skizziergeometrie (ISO)
100
AcDbLine
 10
-35.0
 20
36.98644513033116
 30
0.0
 11
-35.0
 21
41.98644513033116
 31
0.0
  0
LINE
  5
29A
330
291
100
AcDbEntity
  8
Skizziergeometrie (ISO)
100
AcDbLine
 10
35.00000000000002
 20
31.98644513033056
 30
0.0
 11
-35.0
 21
31.98644513033116
 31
0.0
  0
LINE
  5
29B
330
291
100
AcDbEntity
  8
Skizziergeometrie (ISO)
100
AcDbLine
 10
-35.0
 20
31.98644513033116
 30
0.0
 11
-35.0
 21
36.98644513033116
 31
0.0
  0
LINE
  5
29C
330
291
100
AcDbEntity
  8
Skizziergeometrie (ISO)
100
AcDbLine
 10
-35.0
 20
31.98644513033116
 30
0.0
 11
35.00000000000002
 21
31.98644513033056
 31
0.0
  0
LINE
  5
29D
330
291
100
AcDbEntity
  8
Skizziergeometrie (ISO)
100
AcDbLine
 10
-35.0
 20
26.98644513033042
 30
0.0
 11
35.00000000000002
 21
26.98644513033054
 31
0.0
  0
LINE
  5
29E
330
291
100
AcDbEntity
  8
Skizziergeometrie (ISO)
100
AcDbLine
 10
-35.0
 20
26.98644513033042
 30
0.0
 11
-35.0
 21
31.98644513033116
 31
0.0
  0
LINE
  5
29F
330
291
100
AcDbEntity
  8
Skizziergeometrie (ISO)
100
AcDbLine
 10
-35.00000000000001
 20
6.986445130330345
 30
0.0
 11
35.00000000000002
 21
6.98644513033054
 31
0.0
  0
LINE
  5
2A0
330
291
100
AcDbEntity
  8
Skizziergeometrie (ISO)
100
AcDbLine
 10
-35.00000000000001
 20
6.986445130330345
 30
0.0
 11
-35.0
 21
11.98644513033036
 31
0.0
  0
LINE
  5
2A1
330
291
100
AcDbEntity
  8
Skizziergeometrie (ISO)
100
AcDbLine
 10
-35.0
 20
11.98644513033036
 30
0.0
 11
35.00000000000002
 21
11.98644513033054
 31
0.0
  0
LINE
  5
2A2
330
291
100
AcDbEntity
  8
Skizziergeometrie (ISO)
100
AcDbLine
 10
-35.0
 20
11.98644513033036
 30
0.0
 11
-35.0
 21
16.98644513033038
 31
0.0
  0
LINE
  5
2A3
330
291
100
AcDbEntity
  8
Skizziergeometrie (ISO)
100
AcDbLine
 10
-35.0
 20
16.98644513033038
 30
0.0
 11
35.00000000000002
 21
16.98644513033054
 31
0.0
  0
LINE
  5
2A4
330
291
100
AcDbEntity
  8
Skizziergeometrie (ISO)
100
AcDbLine
 10
-35.0
 20
16.98644513033038
 30
0.0
 11
-35.0
 21
21.9864451303304
 31
0.0
  0
LINE
  5
2A5
330
291
100
AcDbEntity
  8
Skizziergeometrie (ISO)
100
AcDbLine
 10
-35.0
 20
21.9864451303304
 30
0.0
 11
35.00000000000002
 21
21.98644513033054
 31
0.0
  0
LINE
  5
2A6
330
291
100
AcDbEntity
  8
Skizziergeometrie (ISO)
100
AcDbLine
 10
-35.0
 20
21.9864451303304
 30
0.0
 11
-35.0
 21
26.98644513033042
 31
0.0
  0
LINE
  5
2A7
330
291
100
AcDbEntity
  8
Skizziergeometrie (ISO)
100
AcDbLine
 10
-35.00000000000001
 20
-13.01355486966972
 30
0.0
 11
35.0
 21
-13.01355486966946
 31
0.0
  0
LINE
  5
2A8
330
291
100
AcDbEntity
  8
Skizziergeometrie (ISO)
100
AcDbLine
 10
-35.0
 20
-8.013554869669707
 30
0.0
 11
35.00000000000002
 21
-8.013554869669459
 31
0.0
  0
LINE
  5
2A9
330
291
100
AcDbEntity
  8
Skizziergeometrie (ISO)
100
AcDbLine
 10
-35.0
 20
-3.01355486966969
 30
0.0
 11
35.00000000000002
 21
-3.013554869669459
 31
0.0
  0
LINE
  5
2AA
330
291
100
AcDbEntity
  8
Skizziergeometrie (ISO)
100
AcDbLine
 10
-35.0
 20
1.986445130330327
 30
0.0
 11
35.00000000000002
 21
1.98644513033054
 31
0.0
  0
LINE
  5
2AB
330
291
100
AcDbEntity
  8
Skizziergeometrie (ISO)
100
AcDbLine
 10
-35.00000000000001
 20
6.986445130330345
 30
0.0
 11
35.00000000000002
 21
6.98644513033054
 31
0.0
  0
LINE
  5
2AC
330
291
100
AcDbEntity
  8
Skizziergeometrie (ISO)
100
AcDbLine
 10
-35.00000000000001
 20
-13.01355486966972
 30
0.0
 11
-35.00000000000001
 21
36.54266314779697
 31
0.0
  0
LINE
  5
2AD
330
291
100
AcDbEntity
  8
Skizziergeometrie (ISO)
100
AcDbLine
 10
-35.00000000000001
 20
6.986445130330345
 30
0.0
 11
-35.00000000000001
 21
-13.01355486966972
 31
0.0
  0
LINE
  5
2AE
330
291
100
AcDbEntity
  8
Skizziergeometrie (ISO)
100
AcDbLine
 10
-35.0
 20
1.986445130330327
 30
0.0
 11
-35.00000000000001
 21
6.986445130330345
 31
0.0
  0
LINE
  5
2AF
330
291
100
AcDbEntity
  8
Skizziergeometrie (ISO)
100
AcDbLine
 10
-35.0
 20
-8.013554869669707
 30
0.0
 11
-35.0
 21
-3.01355486966969
 31
0.0
  0
LINE
  5
2B0
330
291
100
AcDbEntity
  8
Skizziergeometrie (ISO)
100
AcDbLine
 10
-35.0
 20
-3.01355486966969
 30
0.0
 11
-35.0
 21
1.986445130330327
 31
0.0
  0
LINE
  5
2B1
330
291
100
AcDbEntity
  8
Skizziergeometrie (ISO)
100
AcDbLine
 10
35.00000000000002
 20
46.98644513033055
 30
0.0
 11
35.0
 21
-13.01355486966946
 31
0.0
  0
LINE
  5
2B2
330
291
100
AcDbEntity
  8
Skizziergeometrie (ISO)
100
AcDbLine
 10
-35.00000000000001
 20
-13.01355486966972
 30
0.0
 11
-35.00000000000001
 21
-46.98644513033058
 31
0.0
  0
LINE
  5
2B3
330
291
100
AcDbEntity
  8
Skizziergeometrie (ISO)
100
AcDbLine
 10
35.00000000000002
 20
-46.98644513033058
 30
0.0
 11
35.0
 21
-13.01355486966946
 31
0.0
  0
LINE
  5
2B4
330
291
100
AcDbEntity
  8
Skizziergeometrie (ISO)
100
AcDbLine
 10
-35.00000000000001
 20
-18.01355486966972
 30
0.0
 11
35.00000000000002
 21
-18.01355486966944
 31
0.0
  0
LINE
  5
2B5
330
291
100
AcDbEntity
  8
Skizziergeometrie (ISO)
100
AcDbLine
 10
-35.00000000000001
 20
-23.01355486966974
 30
0.0
 11
35.00000000000002
 21
-23.01355486966944
 31
0.0
  0
LINE
  5
2B6
330
291
100
AcDbEntity
  8
Skizziergeometrie (ISO)
100
AcDbLine
 10
-35.00000000000001
 20
-28.01355486966976
 30
0.0
 11
35.00000000000002
 21
-28.01355486966944
 31
0.0
  0
LINE
  5
2B7
330
291
100
AcDbEntity
  8
Skizziergeometrie (ISO)
100
AcDbLine
 10
-35.00000000000001
 20
-33.01355486966978
 30
0.0
 11
35.00000000000002
 21
-33.01355486966944
 31
0.0
  0
LINE
  5
2B8
330
291
100
AcDbEntity
  8
Skizziergeometrie (ISO)
100
AcDbLine
 10
-35.00000000000001
 20
-38.0135548696698
 30
0.0
 11
35.00000000000002
 21
-38.01355486966944
 31
0.0
  0
LINE
  5
2B9
330
291
100
AcDbEntity
  8
Skizziergeometrie (ISO)
100
AcDbLine
 10
-35.00000000000001
 20
-43.01355486966983
 30
0.0
 11
35.00000000000002
 21
-43.01355486966944
 31
0.0
  0
LINE
  5
2BA
330
291
100
AcDbEntity
  8
Skizziergeometrie (ISO)
100
AcDbLine
 10
-35.00000000000001
 20
-46.98644513033058
 30
0.0
 11
35.00000000000002
 21
-46.98644513033118
 31
0.0
  0
MTEXT
  5
2BB
330
291
100
AcDbEntity
  8
Symbol (ISO)
100
AcDbMText
 10
-33.0
 20
40.48644513033057
 30
0.0
 40
2.000000029802322
 41
0.0
 46
0.0
 71
     1
 72
     1
  1
\fISOCPEUR|b0|i0;\H2.0000;A = Gesamtlänge
  7
Notiztext (DIN)
 73
     1
 44
1.0
  0
MTEXT
  5
2BC
330
291
100
AcDbEntity
  8
Symbol (ISO)
100
AcDbMText
 10
-33.0
 20
35.48644513033057
 30
0.0
 40
2.000000029802322
 41
0.0
 46
0.0
 71
     1
 72
     1
  1
\fISOCPEUR|b0|i0;\H2.0000;C = Zylinderlänge
  7
Notiztext (DIN)
 73
     1
 44
1.0
  0
MTEXT
  5
2BD
330
291
100
AcDbEntity
  8
Symbol (ISO)
100
AcDbMText
 10
-33.0
 20
30.48644513033055
 30
0.0
 40
2.000000029802322
 41
0.0
 46
0.0
 71
     1
 72
     1
  1
\fISOCPEUR|b0|i0;\H2.0000;CR = Stirnmaß (FUE<>BST)
  7
Notiztext (DIN)
 73
     1
 44
1.0
  0
MTEXT
  5
2BE
330
291
100
AcDbEntity
  8
Symbol (ISO)
100
AcDbMText
 10
-33.0
 20
25.48644513033054
 30
0.0
 40
2.000000029802322
 41
0.0
 46
0.0
 71
     1
 72
     1
  1
\fISOCPEUR|b0|i0;\H2.0000;D = sonstige Länge
  7
Notiztext (DIN)
 73
     1
 44
1.0
  0
MTEXT
  5
2BF
330
291
100
AcDbEntity
  8
Symbol (ISO)
100
AcDbMText
 10
-33.0
 20
5.486445130330537
 30
0.0
 40
2.000000029802322
 41
0.0
 46
0.0
 71
     1
 72
     1
  1
\fISOCPEUR|b0|i0;\H2.0000;F = sonstige Länge
  7
Notiztext (DIN)
 73
     1
 44
1.0
  0
MTEXT
  5
2C0
330
291
100
AcDbEntity
  8
Symbol (ISO)
100
AcDbMText
 10
-33.0
 20
15.48644513033053
 30
0.0
 40
2.000000029802322
 41
0.0
 46
0.0
 71
     1
 72
     1
  1
\fISOCPEUR|b0|i0;\H2.0000;dROH = Durchmesser Rohr
  7
Notiztext (DIN)
 73
     1
 44
1.0
  0
MTEXT
  5
2C1
330
291
100
AcDbEntity
  8
Symbol (ISO)
100
AcDbMText
 10
-33.0
 20
10.48644513033053
 30
0.0
 40
2.000000029802322
 41
0.0
 46
0.0
 71
     1
 72
     1
  1
\fISOCPEUR|b0|i0;\H2.0000;E = kürzeste Gesamtlänge eingefahren
  7
Notiztext (DIN)
 73
     1
 44
1.0
  0
MTEXT
  5
2C2
330
291
100
AcDbEntity
  8
Symbol (ISO)
100
AcDbMText
 10
-33.0
 20
20.48644513033054
 30
0.0
 40
2.000000029802322
 41
0.0
 46
0.0
 71
     1
 72
     1
  1
\fISOCPEUR|b0|i0;\H2.0000;dGWZ = Durchmesser Gewindezapfen
  7
Notiztext (DIN)
 73
     1
 44
1.0
  0
MTEXT
  5
2C3
330
291
100
AcDbEntity
  8
Symbol (ISO)
100
AcDbMText
 10
-33.0
 20
45.56018892946163
 30
0.0
 40
2.5
 41
0.0
 46
0.0
 71
     1
 72
     1
  1
\fISOCPEUR|b0|i0;\H2.5000;Zeichnungsparameter
  7
Notiztext (DIN)
 73
     1
 44
1.0
  0
MTEXT
  5
2C4
330
291
100
AcDbEntity
  8
Symbol (ISO)
100
AcDbMText
 10
-32.99999999999999
 20
-29.51355486966944
 30
0.0
 40
2.000000029802322
 41
0.0
 46
0.0
 71
     1
 72
     1
  1
\fISOCPEUR|b0|i0;\H2.0000;lGWZ = länge Gewindezapfen
  7
Notiztext (DIN)
 73
     1
 44
1.0
  0
MTEXT
  5
2C5
330
291
100
AcDbEntity
  8
Symbol (ISO)
100
AcDbMText
 10
-32.99999999999999
 20
-24.51355486966944
 30
0.0
 40
2.000000029802322
 41
0.0
 46
0.0
 71
     1
 72
     1
  1
\fISOCPEUR|b0|i0;\H2.0000;L = Gesamtlänge ohne Gewindeanschlüsse
  7
Notiztext (DIN)
 73
     1
 44
1.0
  0
MTEXT
  5
2C6
330
291
100
AcDbEntity
  8
Symbol (ISO)
100
AcDbMText
 10
-32.99999999999999
 20
-19.51355486966944
 30
0.0
 40
2.000000029802322
 41
0.0
 46
0.0
 71
     1
 72
     1
  1
\fISOCPEUR|b0|i0;\H2.0000;I = sonstige Länge
  7
Notiztext (DIN)
 73
     1
 44
1.0
  0
MTEXT
  5
2C7
330
291
100
AcDbEntity
  8
Symbol (ISO)
100
AcDbMText
 10
-32.99999999999999
 20
-14.51355486966946
 30
0.0
 40
2.000000029802322
 41
0.0
 46
0.0
 71
     1
 72
     1
  1
\fISOCPEUR|b0|i0;\H2.0000;H = Hub
  7
Notiztext (DIN)
 73
     1
 44
1.0
  0
MTEXT
  5
2C8
330
291
100
AcDbEntity
  8
Symbol (ISO)
100
AcDbMText
 10
-33.0
 20
-9.513554869669462
 30
0.0
 40
2.000000029802322
 41
0.0
 46
0.0
 71
     1
 72
     1
  1
\fISOCPEUR|b0|i0;\H2.0000;GLe = Gesamtlänge mit Anschlussteilen eingefahren
  7
Notiztext (DIN)
 73
     1
 44
1.0
  0
MTEXT
  5
2C9
330
291
100
AcDbEntity
  8
Symbol (ISO)
100
AcDbMText
 10
-33.0
 20
-4.513554869669462
 30
0.0
 40
2.000000029802322
 41
0.0
 46
0.0
 71
     1
 72
     1
  1
\fISOCPEUR|b0|i0;\H2.0000;GLa = Gesamtlänge mit Anschlussteilen ausgefahren
  7
Notiztext (DIN)
 73
     1
 44
1.0
  0
MTEXT
  5
2CA
330
291
100
AcDbEntity
  8
Symbol (ISO)
100
AcDbMText
 10
-33.0
 20
0.4864451303305373
 30
0.0
 40
2.000000029802322
 41
0.0
 46
0.0
 71
     1
 72
     1
  1
\fISOCPEUR|b0|i0;\H2.0000;G = Gesamtlänge Kolbenstange
  7
Notiztext (DIN)
 73
     1
 44
1.0
  0
MTEXT
  5
2CB
330
291
100
AcDbEntity
  8
Symbol (ISO)
100
AcDbMText
 10
-32.99999999999999
 20
-39.51355486966945
 30
0.0
 40
2.000000029802322
 41
0.0
 46
0.0
 71
     1
 72
     1
  1
\fISOCPEUR|b0|i0;\H2.0000;S = Sickenmaß
  7
Notiztext (DIN)
 73
     1
 44
1.0
  0
MTEXT
  5
2CC
330
291
100
AcDbEntity
  8
Symbol (ISO)
100
AcDbMText
 10
-32.99999999999999
 20
-34.51355486966945
 30
0.0
 40
2.000000029802322
 41
0.0
 46
0.0
 71
     1
 72
     1
  1
\fISOCPEUR|b0|i0;\H2.0000;lANS = länge Anschluss
  7
Notiztext (DIN)
 73
     1
 44
1.0
  0
MTEXT
  5
2CD
330
291
100
AcDbEntity
  8
Symbol (ISO)
100
AcDbMText
 10
-33.04242336774485
 20
-44.00888391176137
 30
0.0
 40
2.000000029802322
 41
0.0
 46
0.0
 71
     1
 72
     1
  1
\fISOCPEUR|b0|i0;\H2.0000;X = Konstante über Rohrverlängerung/Verkürzung
  7
Notiztext (DIN)
 73
     1
 44
1.0
  0
ENDBLK
  5
293
330
291
100
AcDbEntity
  8
0
100
AcDbBlockEnd
  0
BLOCK
  5
2CF
330
2CE
100
AcDbEntity
  8
0
100
AcDbBlockBegin
  2
_Closed
 70
     0
 10
0.0
 20
0.0
 30
0.0
  3
_Closed
  1

  0
LINE
  5
2D1
330
2CE
100
AcDbEntity
  8
0
  6
ByBlock
 62
     7
370
    25
100
AcDbLine
 10
-0.05
 20
0.0166666666666667
 30
0.0
 11
0.05
 21
0.0
 31
0.0
  0
LINE
  5
2D2
330
2CE
100
AcDbEntity
  8
0
  6
ByBlock
 62
     7
370
    25
100
AcDbLine
 10
0.05
 20
0.0
 30
0.0
 11
-0.05
 21
-0.0166666666666667
 31
0.0
  0
LINE
  5
2D3
330
2CE
100
AcDbEntity
  8
0
  6
ByBlock
 62
     7
370
    25
100
AcDbLine
 10
-0.05
 20
0.0166666666666667
 30
0.0
 11
-0.05
 21
-0.0166666666666667
 31
0.0
  0
LINE
  5
2D4
330
2CE
100
AcDbEntity
  8
0
  6
ByBlock
 62
     7
370
    25
100
AcDbLine
 10
0.05
 20
0.0
 30
0.0
 11
-0.05
 21
0.0
 31
0.0
  0
ENDBLK
  5
2D0
330
2CE
100
AcDbEntity
  8
0
100
AcDbBlockEnd
  0
BLOCK
  5
2D6
330
2D5
100
AcDbEntity
  8
0
100
AcDbBlockBegin
  2
Galvanisch blau verzinkt
 70
     0
 10
0.0
 20
0.0
 30
0.0
  3
Galvanisch blau verzinkt
  1

  0
LINE
  5
2D8
330
2D5
100
AcDbEntity
  8
Skizziergeometrie (ISO)
100
AcDbLine
 10
-36.35872129728794
 20
6.746996373289935
 30
0.0
 11
36.35872129728794
 21
6.746996373289935
 31
0.0
  0
LINE
  5
2D9
330
2D5
100
AcDbEntity
  8
Skizziergeometrie (ISO)
100
AcDbLine
 10
36.35872129728794
 20
6.746996373289935
 30
0.0
 11
36.35872129728794
 21
-6.746996373289935
 31
0.0
  0
LINE
  5
2DA
330
2D5
100
AcDbEntity
  8
Skizziergeometrie (ISO)
100
AcDbLine
 10
36.35872129728794
 20
-6.746996373289935
 30
0.0
 11
-36.35872129728794
 21
-6.746996373289935
 31
0.0
  0
LINE
  5
2DB
330
2D5
100
AcDbEntity
  8
Skizziergeometrie (ISO)
100
AcDbLine
 10
-36.35872129728794
 20
-6.746996373289935
 30
0.0
 11
-36.35872129728794
 21
6.746996373289935
 31
0.0
  0
MTEXT
  5
2DC
330
2D5
100
AcDbEntity
  8
Symbol (ISO)
100
AcDbMText
 10
-0.0000000000000133
 20
-3.594737779988192
 30
0.0
 40
3.499999940395355
 41
72.89923620106228
 46
0.0
 71
     5
 72
     1
  1
Galvanisch blau verzinkt \PSchichtdicke 0,005-0,008 \P
  7
Notiztext (DIN)
 73
     2
 44
1.064074635505676
  0
ENDBLK
  5
2D7
330
2D5
100
AcDbEntity
  8
0
100
AcDbBlockEnd
  0
BLOCK
  5
2DE
330
2DD
100
AcDbEntity
  8
0
100
AcDbBlockBegin
  2
2DTransSchnitt0
 70
     0
 10
0.0
 20
0.0
 30
0.0
  3
2DTransSchnitt0
  1

  0
HATCH
  5
2E3
330
2DD
100
AcDbEntity
  8
Schnittlinie (ISO)
100
AcDbHatch
 10
0.0
 20
0.0
 30
0.0
210
0.0
220
0.0
230
1.0
  2
SOLID
 70
     1
 71
     0
 91
        1
 92
        1
 93
        3
 72
     1
 10
100.9745194873466
 20
215.9903062021236
 11
105.9745195618524
 21
216.9903052484493
 72
     1
 10
105.9745195618524
 20
216.9903052484493
 11
100.9745194873466
 21
217.9903072750072
 72
     1
 10
100.9745194873466
 20
217.9903072750072
 11
100.9745194873466
 21
215.9903062021236
 97
        0
 75
     0
 76
     1
 98
        1
 10
0.0
 20
0.0
450
        0
451
        0
460
0.0
461
0.0
452
        0
462
0.0
453
        0
470

  0
HATCH
  5
2E7
330
2DD
100
AcDbEntity
  8
Schnittlinie (ISO)
100
AcDbHatch
 10
0.0
 20
0.0
 30
0.0
210
0.0
220
0.0
230
1.0
  2
SOLID
 70
     1
 71
     0
 91
        1
 92
        1
 93
        3
 72
     1
 10
100.9745194873466
 20
149.3545157348613
 11
105.9745195618524
 21
150.354514781187
 72
     1
 10
105.9745195618524
 20
150.354514781187
 11
100.9745194873466
 21
151.3545138275127
 72
     1
 10
100.9745194873466
 20
151.3545138275127
 11
100.9745194873466
 21
149.3545157348613
 97
        0
 75
     0
 76
     1
 98
        1
 10
0.0
 20
0.0
450
        0
451
        0
460
0.0
461
0.0
452
        0
462
0.0
453
        0
470

  0
LINE
  5
2E8
330
2DD
100
AcDbEntity
  8
Schnittlinie (ISO)
  6
Continuous
 62
     7
370
   140
100
AcDbLine
 10
105.9745195618524
 20
222.5197801928954
 30
0.0
 11
105.9745195618524
 21
211.4608324130136
 31
0.0
  0
LINE
  5
2E9
330
2DD
100
AcDbEntity
  8
Schnittlinie (ISO)
  6
Continuous
 62
     7
370
   140
100
AcDbLine
 10
105.9745195618524
 20
155.883989073368
 30
0.0
 11
105.9745195618524
 21
144.8250412934861
 31
0.0
  0
LINE
  5
2EA
330
2DD
100
AcDbEntity
  8
Schnittlinie (ISO)
  6
Continuous
 62
     7
370
    70
100
AcDbLine
 10
100.9745195618524
 20
216.9903063029545
 30
0.0
 11
105.9745195618524
 21
216.9903063029545
 31
0.0
  0
LINE
  5
2EB
330
2DD
100
AcDbEntity
  8
Schnittlinie (ISO)
  6
Continuous
 62
     7
370
    70
100
AcDbLine
 10
100.9745194873466
 20
215.9903062021236
 30
0.0
 11
105.9745195618524
 21
216.9903052484493
 31
0.0
  0
LINE
  5
2EC
330
2DD
100
AcDbEntity
  8
Schnittlinie (ISO)
  6
Continuous
 62
     7
370
    70
100
AcDbLine
 10
105.9745195618524
 20
216.9903052484493
 30
0.0
 11
100.9745194873466
 21
217.9903072750072
 31
0.0
  0
LINE
  5
2ED
330
2DD
100
AcDbEntity
  8
Schnittlinie (ISO)
  6
Continuous
 62
     7
370
    70
100
AcDbLine
 10
100.9745194873466
 20
217.9903072750072
 30
0.0
 11
100.9745194873466
 21
215.9903062021236
 31
0.0
  0
LINE
  5
2EE
330
2DD
100
AcDbEntity
  8
Schnittlinie (ISO)
100
AcDbLine
 10
100.9745194873466
 20
215.9903062021236
 30
0.0
 11
105.9745195618524
 21
216.9903052484493
 31
0.0
  0
LINE
  5
2EF
330
2DD
100
AcDbEntity
  8
Schnittlinie (ISO)
100
AcDbLine
 10
105.9745195618524
 20
216.9903052484493
 30
0.0
 11
100.9745194873466
 21
217.9903072750072
 31
0.0
  0
LINE
  5
2F0
330
2DD
100
AcDbEntity
  8
Schnittlinie (ISO)
100
AcDbLine
 10
100.9745194873466
 20
217.9903072750072
 30
0.0
 11
100.9745194873466
 21
215.9903062021236
 31
0.0
  0
LINE
  5
2F1
330
2DD
100
AcDbEntity
  8
Schnittlinie (ISO)
  6
Continuous
 62
     7
370
    70
100
AcDbLine
 10
100.9745195618524
 20
215.9903063029545
 30
0.0
 11
105.9745195618524
 21
216.9903063029545
 31
0.0
  0
LINE
  5
2F2
330
2DD
100
AcDbEntity
  8
Schnittlinie (ISO)
  6
Continuous
 62
     7
370
    70
100
AcDbLine
 10
105.9745195618524
 20
216.9903063029545
 30
0.0
 11
100.9745195618524
 21
217.9903063029545
 31
0.0
  0
LINE
  5
2F3
330
2DD
100
AcDbEntity
  8
Schnittlinie (ISO)
  6
Continuous
 62
     7
370
    70
100
AcDbLine
 10
100.9745195618524
 20
217.9903063029545
 30
0.0
 11
100.9745195618524
 21
215.9903063029545
 31
0.0
  0
LINE
  5
2F4
330
2DD
100
AcDbEntity
  8
Schnittlinie (ISO)
  6
Continuous
 62
     7
370
    70
100
AcDbLine
 10
94.54757414763347
 20
216.9903063029545
 30
0.0
 11
100.9745195618524
 21
216.9903063029545
 31
0.0
  0
LINE
  5
2F5
330
2DD
100
AcDbEntity
  8
Schnittlinie (ISO)
  6
Continuous
 62
     7
370
    70
100
AcDbLine
 10
100.9745195618524
 20
150.354515183427
 30
0.0
 11
105.9745195618524
 21
150.354515183427
 31
0.0
  0
LINE
  5
2F6
330
2DD
100
AcDbEntity
  8
Schnittlinie (ISO)
  6
Continuous
 62
     7
370
    70
100
AcDbLine
 10
100.9745194873466
 20
149.3545157348613
 30
0.0
 11
105.9745195618524
 21
150.354514781187
 31
0.0
  0
LINE
  5
2F7
330
2DD
100
AcDbEntity
  8
Schnittlinie (ISO)
  6
Continuous
 62
     7
370
    70
100
AcDbLine
 10
105.9745195618524
 20
150.354514781187
 30
0.0
 11
100.9745194873466
 21
151.3545138275127
 31
0.0
  0
LINE
  5
2F8
330
2DD
100
AcDbEntity
  8
Schnittlinie (ISO)
  6
Continuous
 62
     7
370
    70
100
AcDbLine
 10
100.9745194873466
 20
151.3545138275127
 30
0.0
 11
100.9745194873466
 21
149.3545157348613
 31
0.0
  0
LINE
  5
2F9
330
2DD
100
AcDbEntity
  8
Schnittlinie (ISO)
100
AcDbLine
 10
100.9745194873466
 20
149.3545157348613
 30
0.0
 11
105.9745195618524
 21
150.354514781187
 31
0.0
  0
LINE
  5
2FA
330
2DD
100
AcDbEntity
  8
Schnittlinie (ISO)
100
AcDbLine
 10
105.9745195618524
 20
150.354514781187
 30
0.0
 11
100.9745194873466
 21
151.3545138275127
 31
0.0
  0
LINE
  5
2FB
330
2DD
100
AcDbEntity
  8
Schnittlinie (ISO)
100
AcDbLine
 10
100.9745194873466
 20
151.3545138275127
 30
0.0
 11
100.9745194873466
 21
149.3545157348613
 31
0.0
  0
LINE
  5
2FC
330
2DD
100
AcDbEntity
  8
Schnittlinie (ISO)
  6
Continuous
 62
     7
370
    70
100
AcDbLine
 10
100.9745195618524
 20
149.354515183427
 30
0.0
 11
105.9745195618524
 21
150.354515183427
 31
0.0
  0
LINE
  5
2FD
330
2DD
100
AcDbEntity
  8
Schnittlinie (ISO)
  6
Continuous
 62
     7
370
    70
100
AcDbLine
 10
105.9745195618524
 20
150.354515183427
 30
0.0
 11
100.9745195618524
 21
151.354515183427
 31
0.0
  0
LINE
  5
2FE
330
2DD
100
AcDbEntity
  8
Schnittlinie (ISO)
  6
Continuous
 62
     7
370
    70
100
AcDbLine
 10
100.9745195618524
 20
151.354515183427
 30
0.0
 11
100.9745195618524
 21
149.354515183427
 31
0.0
  0
LINE
  5
2FF
330
2DD
100
AcDbEntity
  8
Schnittlinie (ISO)
  6
Continuous
 62
     7
370
    70
100
AcDbLine
 10
94.54757414763347
 20
150.354515183427
 30
0.0
 11
100.9745195618524
 21
150.354515183427
 31
0.0
  0
MTEXT
  5
300
330
2DD
100
AcDbEntity
  8
Schnittlinie (ISO)
100
AcDbMText
 10
88.20409497615356
 20
212.6153065016367
 30
0.0
 40
5.24999976158142
 41
0.0
 46
0.0
 71
     7
 72
     1
  1
A
  7
Bezeichnungstext (DIN)
 73
     2
 44
0.8714999556541442
  0
MTEXT
  5
301
330
2DD
100
AcDbEntity
  8
Schnittlinie (ISO)
100
AcDbMText
 10
88.20409497615356
 20
145.9795153821092
 30
0.0
 40
5.24999976158142
 41
0.0
 46
0.0
 71
     7
 72
     1
  1
A
  7
Bezeichnungstext (DIN)
 73
     2
 44
0.8714999556541442
  0
ENDBLK
  5
2DF
330
2DD
100
AcDbEntity
  8
0
100
AcDbBlockEnd
  0
BLOCK
  5
303
330
302
100
AcDbEntity
  8
0
100
AcDbBlockBegin
  2
Schraffur_1
 70
     0
 10
0.0
 20
0.0
 30
0.0
  3
Schraffur_1
  1

  0
LINE
  5
305
330
302
100
AcDbEntity
  8
Schraffur (ISO)
  6
Continuous
 62
     7
370
    18
100
AcDbLine
 10
47.99124500195691
 20
40.44781540954217
 30
0.0
 11
48.68031499639371
 21
41.13688517879446
 31
0.0
  0
LINE
  5
306
330
302
100
AcDbEntity
  8
Schraffur (ISO)
  6
Continuous
 62
     7
370
    18
100
AcDbLine
 10
47.99124500195691
 20
39.90900013031905
 30
0.0
 11
49.21913045169894
 21
41.13688517879445
 31
0.0
  0
LINE
  5
307
330
302
100
AcDbEntity
  8
Schraffur (ISO)
  6
Continuous
 62
     7
370
    18
100
AcDbLine
 10
48.16032626955034
 20
39.53926606343447
 30
0.0
 11
49.75794590700417
 21
41.13688517879445
 31
0.0
  0
LINE
  5
308
330
302
100
AcDbEntity
  8
Schraffur (ISO)
  6
Continuous
 62
     7
370
    18
100
AcDbLine
 10
48.50192153940216
 20
39.34204594243162
 30
0.0
 11
50.29676136230939
 21
41.13688517879445
 31
0.0
  0
LINE
  5
309
330
302
100
AcDbEntity
  8
Schraffur (ISO)
  6
Continuous
 62
     7
370
    18
100
AcDbLine
 10
48.843516809254
 20
39.14482582142877
 30
0.0
 11
50.83557681761462
 21
41.13688517879445
 31
0.0
  0
LINE
  5
30A
330
302
100
AcDbEntity
  8
Schraffur (ISO)
  6
Continuous
 62
     7
370
    18
100
AcDbLine
 10
49.18511207910583
 20
38.94760570042591
 30
0.0
 11
51.37439227291984
 21
41.13688517879445
 31
0.0
  0
LINE
  5
30B
330
302
100
AcDbEntity
  8
Schraffur (ISO)
  6
Continuous
 62
     7
370
    18
100
AcDbLine
 10
49.52670734895765
 20
38.75038557942305
 30
0.0
 11
51.91320772822507
 21
41.13688517879445
 31
0.0
  0
LINE
  5
30C
330
302
100
AcDbEntity
  8
Schraffur (ISO)
  6
Continuous
 62
     7
370
    18
100
AcDbLine
 10
49.90202235020319
 20
38.58688517879446
 30
0.0
 11
52.4520231835303
 21
41.13688517879445
 31
0.0
  0
LINE
  5
30D
330
302
100
AcDbEntity
  8
Schraffur (ISO)
  6
Continuous
 62
     7
370
    18
100
AcDbLine
 10
50.44083780550842
 20
38.58688517879446
 30
0.0
 11
52.99083863883552
 21
41.13688517879445
 31
0.0
  0
LINE
  5
30E
330
302
100
AcDbEntity
  8
Schraffur (ISO)
  6
Continuous
 62
     7
370
    18
100
AcDbLine
 10
50.97965326081364
 20
38.58688517879446
 30
0.0
 11
52.99124500195691
 21
40.59847626255994
 31
0.0
  0
LINE
  5
30F
330
302
100
AcDbEntity
  8
Schraffur (ISO)
  6
Continuous
 62
     7
370
    18
100
AcDbLine
 10
51.51846871611887
 20
38.58688517879447
 30
0.0
 11
52.99124500195691
 21
40.05966098333682
 31
0.0
  0
LINE
  5
310
330
302
100
AcDbEntity
  8
Schraffur (ISO)
  6
Continuous
 62
     7
370
    18
100
AcDbLine
 10
47.99124500195691
 20
34.52084733808789
 30
0.0
 11
48.26579369315134
 21
34.79539593956125
 31
0.0
  0
LINE
  5
311
330
302
100
AcDbEntity
  8
Schraffur (ISO)
  6
Continuous
 62
     7
370
    18
100
AcDbLine
 10
52.0572841714241
 20
38.58688517879447
 30
0.0
 11
52.99124500195691
 21
39.52084570411371
 31
0.0
  0
LINE
  5
312
330
302
100
AcDbEntity
  8
Schraffur (ISO)
  6
Continuous
 62
     7
370
    18
100
AcDbLine
 10
47.99124500195691
 20
33.98203205886478
 30
0.0
 11
49.54064531746194
 21
35.53143186803379
 31
0.0
  0
LINE
  5
313
330
302
100
AcDbEntity
  8
Schraffur (ISO)
  6
Continuous
 62
     7
370
    18
100
AcDbLine
 10
52.59609962672931
 20
38.58688517879446
 30
0.0
 11
53.14609980646654
 21
39.13688517879446
 31
0.0
  0
LINE
  5
314
330
302
100
AcDbEntity
  8
Schraffur (ISO)
  6
Continuous
 62
     7
370
    18
100
AcDbLine
 10
48.08807921735578
 20
33.5400509633956
 30
0.0
 11
50.2349141343292
 21
35.68688517879446
 31
0.0
  0
LINE
  5
315
330
302
100
AcDbEntity
  8
Schraffur (ISO)
  6
Continuous
 62
     7
370
    18
100
AcDbLine
 10
53.13491508203455
 20
38.58688517879447
 30
0.0
 11
53.68491526177177
 21
39.13688517879446
 31
0.0
  0
LINE
  5
316
330
302
100
AcDbEntity
  8
Schraffur (ISO)
  6
Continuous
 62
     7
370
    18
100
AcDbLine
 10
48.35748690098785
 20
33.27064327976353
 30
0.0
 11
50.77372958963443
 21
35.68688517879446
 31
0.0
  0
LINE
  5
317
330
302
100
AcDbEntity
  8
Schraffur (ISO)
  6
Continuous
 62
     7
370
    18
100
AcDbLine
 10
53.67373053733977
 20
38.58688517879447
 30
0.0
 11
54.22373071707699
 21
39.13688517879446
 31
0.0
  0
LINE
  5
318
330
302
100
AcDbEntity
  8
Schraffur (ISO)
  6
Continuous
 62
     7
370
    18
100
AcDbLine
 10
48.76254421161255
 20
33.13688517879447
 30
0.0
 11
51.31254504493964
 21
35.68688517879446
 31
0.0
  0
LINE
  5
319
330
302
100
AcDbEntity
  8
Schraffur (ISO)
  6
Continuous
 62
     7
370
    18
100
AcDbLine
 10
54.212545992645
 20
38.58688517879447
 30
0.0
 11
54.76254617238222
 21
39.13688517879446
 31
0.0
  0
LINE
  5
31A
330
302
100
AcDbEntity
  8
Schraffur (ISO)
  6
Continuous
 62
     7
370
    18
100
AcDbLine
 10
49.30135966691776
 20
33.13688517879446
 30
0.0
 11
51.85136050024486
 21
35.68688517879446
 31
0.0
  0
LINE
  5
31B
330
302
100
AcDbEntity
  8
Schraffur (ISO)
  6
Continuous
 62
     7
370
    18
100
AcDbLine
 10
54.75136144795023
 20
38.58688517879447
 30
0.0
 11
55.30136162768743
 21
39.13688517879446
 31
0.0
  0
LINE
  5
31C
330
302
100
AcDbEntity
  8
Schraffur (ISO)
  6
Continuous
 62
     7
370
    18
100
AcDbLine
 10
49.84017512222298
 20
33.13688517879446
 30
0.0
 11
52.39017595555011
 21
35.68688517879446
 31
0.0
  0
LINE
  5
31D
330
302
100
AcDbEntity
  8
Schraffur (ISO)
  6
Continuous
 62
     7
370
    18
100
AcDbLine
 10
55.29017690325545
 20
38.58688517879446
 30
0.0
 11
55.84017708299265
 21
39.13688517879446
 31
0.0
  0
LINE
  5
31E
330
302
100
AcDbEntity
  8
Schraffur (ISO)
  6
Continuous
 62
     7
370
    18
100
AcDbLine
 10
50.37899057752821
 20
33.13688517879446
 30
0.0
 11
52.92899141085531
 21
35.68688517879446
 31
0.0
  0
LINE
  5
31F
330
302
100
AcDbEntity
  8
Schraffur (ISO)
  6
Continuous
 62
     7
370
    18
100
AcDbLine
 10
55.82899235856067
 20
38.58688517879446
 30
0.0
 11
56.37899253829788
 21
39.13688517879446
 31
0.0
  0
LINE
  5
320
330
302
100
AcDbEntity
  8
Schraffur (ISO)
  6
Continuous
 62
     7
370
    18
100
AcDbLine
 10
50.91780603283344
 20
33.13688517879446
 30
0.0
 11
53.46780686616054
 21
35.68688517879446
 31
0.0
  0
LINE
  5
321
330
302
100
AcDbEntity
  8
Schraffur (ISO)
  6
Continuous
 62
     7
370
    18
100
AcDbLine
 10
56.13258255214002
 20
38.351659993939
 30
0.0
 11
56.9178079936031
 21
39.13688517879446
 31
0.0
  0
LINE
  5
322
330
302
100
AcDbEntity
  8
Schraffur (ISO)
  6
Continuous
 62
     7
370
    18
100
AcDbLine
 10
51.45662148813866
 20
33.13688517879446
 30
0.0
 11
52.99124500195691
 21
34.67150819110566
 31
0.0
  0
LINE
  5
323
330
302
100
AcDbEntity
  8
Schraffur (ISO)
  6
Continuous
 62
     7
370
    18
100
AcDbLine
 10
56.33481934782247
 20
38.01508144430839
 30
0.0
 11
57.44893422417622
 21
39.12919595657515
 31
0.0
  0
LINE
  5
324
330
302
100
AcDbEntity
  8
Schraffur (ISO)
  6
Continuous
 62
     7
370
    18
100
AcDbLine
 10
53.45662214172855
 20
35.13688517879446
 30
0.0
 11
54.00662232146577
 21
35.68688517879446
 31
0.0
  0
LINE
  5
325
330
302
100
AcDbEntity
  8
Schraffur (ISO)
  6
Continuous
 62
     7
370
    18
100
AcDbLine
 10
51.99543694344388
 20
33.13688517879446
 30
0.0
 11
52.99124500195691
 21
34.13269291188254
 31
0.0
  0
LINE
  5
326
330
302
100
AcDbEntity
  8
Schraffur (ISO)
  6
Continuous
 62
     7
370
    18
100
AcDbLine
 10
56.53705614350492
 20
37.67850289467778
 30
0.0
 11
57.71834190780829
 21
38.85978827294307
 31
0.0
  0
LINE
  5
327
330
302
100
AcDbEntity
  8
Schraffur (ISO)
  6
Continuous
 62
     7
370
    18
100
AcDbLine
 10
53.99543759703377
 20
35.13688517879446
 30
0.0
 11
54.54543777677099
 21
35.68688517879446
 31
0.0
  0
LINE
  5
328
330
302
100
AcDbEntity
  8
Schraffur (ISO)
  6
Continuous
 62
     7
370
    18
100
AcDbLine
 10
52.53425239874911
 20
33.13688517879447
 30
0.0
 11
52.99124500195691
 21
33.59387763265943
 31
0.0
  0
LINE
  5
329
330
302
100
AcDbEntity
  8
Schraffur (ISO)
  6
Continuous
 62
     7
370
    18
100
AcDbLine
 10
56.73929293918739
 20
37.34192434504718
 30
0.0
 11
57.94124500195692
 21
38.54387601502499
 31
0.0
  0
LINE
  5
32A
330
302
100
AcDbEntity
  8
Schraffur (ISO)
  6
Continuous
 62
     7
370
    18
100
AcDbLine
 10
54.53425305233899
 20
35.13688517879446
 30
0.0
 11
55.08425323207622
 21
35.68688517879446
 31
0.0
  0
LINE
  5
32B
330
302
100
AcDbEntity
  8
Schraffur (ISO)
  6
Continuous
 62
     7
370
    18
100
AcDbLine
 10
55.07306850764424
 20
35.13688517879447
 30
0.0
 11
55.62306868738144
 21
35.68688517879446
 31
0.0
  0
LINE
  5
32C
330
302
100
AcDbEntity
  8
Schraffur (ISO)
  6
Continuous
 62
     7
370
    18
100
AcDbLine
 10
56.54549366221804
 20
36.60930985218732
 30
0.0
 11
57.94124500195692
 21
38.00506073580186
 31
0.0
  0
LINE
  5
32D
330
302
100
AcDbEntity
  8
Schraffur (ISO)
  6
Continuous
 62
     7
370
    18
100
AcDbLine
 10
55.61188396294946
 20
35.13688517879447
 30
0.0
 11
57.94124500195692
 21
37.46624545657875
 31
0.0
  0
LINE
  5
32E
330
302
100
AcDbEntity
  8
Schraffur (ISO)
  6
Continuous
 62
     7
370
    18
100
AcDbLine
 10
56.15069941825469
 20
35.13688517879447
 30
0.0
 11
57.94124500195692
 21
36.92743017735565
 31
0.0
  0
LINE
  5
32F
330
302
100
AcDbEntity
  8
Schraffur (ISO)
  6
Continuous
 62
     7
370
    18
100
AcDbLine
 10
56.68951487355991
 20
35.13688517879447
 30
0.0
 11
57.94124500195692
 21
36.38861489813252
 31
0.0
  0
LINE
  5
330
330
302
100
AcDbEntity
  8
Schraffur (ISO)
  6
Continuous
 62
     7
370
    18
100
AcDbLine
 10
57.22833032886514
 20
35.13688517879447
 30
0.0
 11
57.94124500195692
 21
35.84979961890941
 31
0.0
  0
LINE
  5
331
330
302
100
AcDbEntity
  8
Schraffur (ISO)
  6
Continuous
 62
     7
370
    18
100
AcDbLine
 10
62.0412450019569
 20
38.33335244138122
 30
0.0
 11
62.84477800196059
 21
39.13688517879446
 31
0.0
  0
LINE
  5
332
330
302
100
AcDbEntity
  8
Schraffur (ISO)
  6
Continuous
 62
     7
370
    18
100
AcDbLine
 10
62.0412450019569
 20
37.79453716215809
 30
0.0
 11
63.38359345726581
 21
39.13688517879446
 31
0.0
  0
LINE
  5
333
330
302
100
AcDbEntity
  8
Schraffur (ISO)
  6
Continuous
 62
     7
370
    18
100
AcDbLine
 10
62.0412450019569
 20
37.25572188293498
 30
0.0
 11
63.61533242419437
 21
38.82980879076881
 31
0.0
  0
LINE
  5
334
330
302
100
AcDbEntity
  8
Schraffur (ISO)
  6
Continuous
 62
     7
370
    18
100
AcDbLine
 10
62.04124500195691
 20
36.71690660371186
 30
0.0
 11
63.77079755258304
 21
38.44645858912914
 31
0.0
  0
LINE
  5
335
330
302
100
AcDbEntity
  8
Schraffur (ISO)
  6
Continuous
 62
     7
370
    18
100
AcDbLine
 10
62.0412450019569
 20
36.17809132448875
 30
0.0
 11
63.89080172001573
 21
38.02764743812199
 31
0.0
  0
LINE
  5
336
330
302
100
AcDbEntity
  8
Schraffur (ISO)
  6
Continuous
 62
     7
370
    18
100
AcDbLine
 10
62.0412450019569
 20
35.63927604526563
 30
0.0
 11
63.96814231058407
 21
37.5661727241927
 31
0.0
  0
LINE
  5
337
330
302
100
AcDbEntity
  8
Schraffur (ISO)
  6
Continuous
 62
     7
370
    18
100
AcDbLine
 10
62.30945725215807
 20
35.36867292859331
 30
0.0
 11
63.99029048958695
 21
37.04950561673455
 31
0.0
  0
LINE
  5
338
330
302
100
AcDbEntity
  8
Schraffur (ISO)
  6
Continuous
 62
     7
370
    18
100
AcDbLine
 10
62.61648488191739
 20
35.13688517879447
 30
0.0
 11
63.93229630954351
 21
36.4526961764202
 31
0.0
  0
LINE
  5
339
330
302
100
AcDbEntity
  8
Schraffur (ISO)
  6
Continuous
 62
     7
370
    18
100
AcDbLine
 10
63.15530033722261
 20
35.13688517879446
 30
0.0
 11
63.72788639568319
 21
35.70947105013686
 31
0.0
  0
ENDBLK
  5
304
330
302
100
AcDbEntity
  8
0
100
AcDbBlockEnd
  0
BLOCK
  5
36F
330
36E
100
AcDbEntity
  8
0
100
AcDbBlockBegin
  2
*D30
 70
     1
 10
0.0
 20
0.0
 30
0.0
  3
*D30
  1

  0
LINE
  5
46D
330
36E
100
AcDbEntity
  8
Bemaßung (ISO)
440
 16777216
100
AcDbLine
 10
33.62913729109391
 20
15.39770412350988
 30
0.0
 11
31.81237868218448
 21
15.39770412350988
 31
0.0
  0
LINE
  5
46E
330
36E
100
AcDbEntity
  8
Bemaßung (ISO)
440
 16777216
100
AcDbLine
 10
33.62913729109391
 20
11.95670412350988
 30
0.0
 11
31.81237868218448
 21
11.95670412350988
 31
0.0
  0
LINE
  5
46F
330
36E
100
AcDbEntity
  8
Bemaßung (ISO)
440
 16777216
100
AcDbLine
 10
32.81237868218448
 20
17.89770412350988
 30
0.0
 11
32.81237868218448
 21
20.39770412350988
 31
0.0
  0
LINE
  5
470
330
36E
100
AcDbEntity
  8
Bemaßung (ISO)
440
 16777216
100
AcDbLine
 10
32.81237868218447
 20
9.456704123509879
 30
0.0
 11
32.81237868218447
 21
6.956704123509879
 31
0.0
  0
LINE
  5
471
330
36E
100
AcDbEntity
  8
Bemaßung (ISO)
440
 16777216
100
AcDbLine
 10
32.81237868218447
 20
15.39770412350988
 30
0.0
 11
32.81237868218447
 21
11.95670412350988
 31
0.0
  0
SOLID
  5
472
330
36E
100
AcDbEntity
  8
Bemaßung (ISO)
440
 16777216
100
AcDbTrace
 10
32.39571201551782
 20
17.89770412350988
 30
0.0
 11
33.22904534885115
 21
17.89770412350988
 31
0.0
 12
32.81237868218447
 22
15.39770412350988
 32
0.0
 13
32.81237868218447
 23
15.39770412350988
 33
0.0
  0
SOLID
  5
473
330
36E
100
AcDbEntity
  8
Bemaßung (ISO)
440
 16777216
100
AcDbTrace
 10
32.39571201551781
 20
9.456704123509879
 30
0.0
 11
33.22904534885114
 21
9.456704123509879
 31
0.0
 12
32.81237868218447
 22
11.95670412350988
 32
0.0
 13
32.81237868218447
 23
11.95670412350988
 33
0.0
  0
MTEXT
  5
474
330
36E
100
AcDbEntity
  8
Bemaßung (ISO)
440
 16777216
100
AcDbMText
 10
27.81237870434995
 20
8.16470429806302
 30
0.0
 40
3.5
 41
0.0
 46
0.0
 71
     1
 72
     1
  1
\A1; M3,5 
  7
Notiztext (DIN)
 11
0.0000000000000001
 21
1.0
 31
0.0
 73
     1
 44
1.0
  0
POINT
  5
475
330
36E
100
AcDbEntity
  8
Defpoints
 62
     0
440
 16777216
100
AcDbPoint
 10
34.42913729109391
 20
15.39770412350988
 30
0.0
  0
POINT
  5
476
330
36E
100
AcDbEntity
  8
Defpoints
 62
     0
440
 16777216
100
AcDbPoint
 10
34.42913729109391
 20
11.95670412350988
 30
0.0
  0
POINT
  5
477
330
36E
100
AcDbEntity
  8
Defpoints
 62
     0
440
 16777216
100
AcDbPoint
 10
32.81237868218447
 20
11.95670412350988
 30
0.0
  0
ENDBLK
  5
370
330
36E
100
AcDbEntity
  8
0
100
AcDbBlockEnd
  0
BLOCK
  5
47A
330
479
100
AcDbEntity
  8
0
100
AcDbBlockBegin
  2
*D31
 70
     1
 10
0.0
 20
0.0
 30
0.0
  3
*D31
  1

  0
LINE
  5
55F
330
479
100
AcDbEntity
  8
Bemaßung (ISO)
440
 16777216
100
AcDbLine
 10
33.64502909037842
 20
17.67720412350988
 30
0.0
 11
22.6552839633999
 21
17.67720412350988
 31
0.0
  0
LINE
  5
560
330
479
100
AcDbEntity
  8
Bemaßung (ISO)
440
 16777216
100
AcDbLine
 10
33.64502909037842
 20
9.677204123509881
 30
0.0
 11
22.6552839633999
 21
9.677204123509882
 31
0.0
  0
LINE
  5
561
330
479
100
AcDbEntity
  8
Bemaßung (ISO)
440
 16777216
100
AcDbLine
 10
23.6552839633999
 20
15.17720412350988
 30
0.0
 11
23.6552839633999
 21
12.17720412350988
 31
0.0
  0
SOLID
  5
562
330
479
100
AcDbEntity
  8
Bemaßung (ISO)
440
 16777216
100
AcDbTrace
 10
23.23861729673323
 20
15.17720412350988
 30
0.0
 11
24.07195063006657
 21
15.17720412350988
 31
0.0
 12
23.6552839633999
 22
17.67720412350988
 32
0.0
 13
23.6552839633999
 23
17.67720412350988
 33
0.0
  0
SOLID
  5
563
330
479
100
AcDbEntity
  8
Bemaßung (ISO)
440
 16777216
100
AcDbTrace
 10
23.23861729673323
 20
12.17720412350988
 30
0.0
 11
24.07195063006657
 21
12.17720412350988
 31
0.0
 12
23.6552839633999
 22
9.677204123509882
 32
0.0
 13
23.6552839633999
 23
9.677204123509882
 33
0.0
  0
MTEXT
  5
564
330
479
100
AcDbEntity
  8
Bemaßung (ISO)
440
 16777216
100
AcDbMText
 10
17.58918685718575
 20
10.06227065841482
 30
0.0
 40
3.5
 41
0.0
 46
0.0
 71
     1
 72
     1
  1
\A1;{{\fAIGDT|b0|i0;\H0.0000;\fAIGDT|b0|i0;\H0.0000;n\fISOCPEUR|b0|i0;\H0.0000;\fISOCPEUR|b0|i0;\H0.0000;}8}
  7
Notiztext (DIN)
 11
0.0000000000000001
 21
1.0
 31
0.0
 73
     1
 44
1.0
  0
POINT
  5
565
330
479
100
AcDbEntity
  8
Defpoints
 62
     0
440
 16777216
100
AcDbPoint
 10
34.44502909037841
 20
17.67720412350988
 30
0.0
  0
POINT
  5
566
330
479
100
AcDbEntity
  8
Defpoints
 62
     0
440
 16777216
100
AcDbPoint
 10
34.44502909037841
 20
9.677204123509881
 30
0.0
  0
POINT
  5
567
330
479
100
AcDbEntity
  8
Defpoints
 62
     0
440
 16777216
100
AcDbPoint
 10
23.6552839633999
 20
9.677204123509882
 30
0.0
  0
ENDBLK
  5
47B
330
479
100
AcDbEntity
  8
0
100
AcDbBlockEnd
  0
BLOCK
  5
56A
330
569
100
AcDbEntity
  8
0
100
AcDbBlockBegin
  2
*D32
 70
     1
 10
0.0
 20
0.0
 30
0.0
  3
*D32
  1

  0
LINE
  5
64C
330
569
100
AcDbEntity
  8
Bemaßung (ISO)
440
 16777216
100
AcDbLine
 10
33.94502909037842
 20
9.37720412350988
 30
0.0
 11
33.94502909037842
 21
2.478190761452665
 31
0.0
  0
LINE
  5
64D
330
569
100
AcDbEntity
  8
Bemaßung (ISO)
440
 16777216
100
AcDbLine
 10
45.94502909037841
 20
10.37720412350988
 30
0.0
 11
45.94502909037841
 21
2.478190761452665
 31
0.0
  0
LINE
  5
64E
330
569
100
AcDbEntity
  8
Bemaßung (ISO)
440
 16777216
100
AcDbLine
 10
36.44502909037842
 20
3.478190761452665
 30
0.0
 11
43.44502909037841
 21
3.478190761452665
 31
0.0
  0
SOLID
  5
64F
330
569
100
AcDbEntity
  8
Bemaßung (ISO)
440
 16777216
100
AcDbTrace
 10
36.44502909037842
 20
3.894857428119331
 30
0.0
 11
36.44502909037842
 21
3.061524094785998
 31
0.0
 12
33.94502909037842
 22
3.478190761452665
 32
0.0
 13
33.94502909037842
 23
3.478190761452665
 33
0.0
  0
SOLID
  5
650
330
569
100
AcDbEntity
  8
Bemaßung (ISO)
440
 16777216
100
AcDbTrace
 10
43.44502909037841
 20
3.894857428119331
 30
0.0
 11
43.44502909037841
 21
3.061524094785998
 31
0.0
 12
45.94502909037841
 22
3.478190761452665
 32
0.0
 13
45.94502909037841
 23
3.478190761452665
 33
0.0
  0
MTEXT
  5
651
330
569
100
AcDbEntity
  8
Bemaßung (ISO)
440
 16777216
100
AcDbMText
 10
38.19502914579211
 20
7.778190761452664
 30
0.0
 40
3.5
 41
0.0
 46
0.0
 71
     1
 72
     1
  1
\A1;12
  7
Notiztext (DIN)
 73
     1
 44
1.0
  0
POINT
  5
652
330
569
100
AcDbEntity
  8
Defpoints
 62
     0
440
 16777216
100
AcDbPoint
 10
33.94502909037842
 20
10.17720412350988
 30
0.0
  0
POINT
  5
653
330
569
100
AcDbEntity
  8
Defpoints
 62
     0
440
 16777216
100
AcDbPoint
 10
45.94502909037841
 20
11.17720412350988
 30
0.0
  0
POINT
  5
654
330
569
100
AcDbEntity
  8
Defpoints
 62
     0
440
 16777216
100
AcDbPoint
 10
45.94502909037841
 20
3.478190761452665
 30
0.0
  0
ENDBLK
  5
56B
330
569
100
AcDbEntity
  8
0
100
AcDbBlockEnd
  0
BLOCK
  5
657
330
656
100
AcDbEntity
  8
0
100
AcDbBlockBegin
  2
*D33
 70
     1
 10
0.0
 20
0.0
 30
0.0
  3
*D33
  1

  0
LINE
  5
739
330
656
100
AcDbEntity
  8
Bemaßung (ISO)
440
 16777216
100
AcDbLine
 10
33.94502909037842
 20
11.97720412350988
 30
0.0
 11
33.94502909037842
 21
20.46550222952828
 31
0.0
  0
LINE
  5
73A
330
656
100
AcDbEntity
  8
Bemaßung (ISO)
440
 16777216
100
AcDbLine
 10
49.94502909037841
 20
14.47720412350988
 30
0.0
 11
49.94502909037841
 21
20.46550222952828
 31
0.0
  0
LINE
  5
73B
330
656
100
AcDbEntity
  8
Bemaßung (ISO)
440
 16777216
100
AcDbLine
 10
36.44502909037842
 20
19.46550222952828
 30
0.0
 11
47.44502909037841
 21
19.46550222952828
 31
0.0
  0
SOLID
  5
73C
330
656
100
AcDbEntity
  8
Bemaßung (ISO)
440
 16777216
100
AcDbTrace
 10
36.44502909037842
 20
19.88216889619495
 30
0.0
 11
36.44502909037842
 21
19.04883556286161
 31
0.0
 12
33.94502909037842
 22
19.46550222952828
 32
0.0
 13
33.94502909037842
 23
19.46550222952828
 33
0.0
  0
SOLID
  5
73D
330
656
100
AcDbEntity
  8
Bemaßung (ISO)
440
 16777216
100
AcDbTrace
 10
47.44502909037841
 20
19.88216889619495
 30
0.0
 11
47.44502909037841
 21
19.04883556286161
 31
0.0
 12
49.94502909037841
 22
19.46550222952828
 32
0.0
 13
49.94502909037841
 23
19.46550222952828
 33
0.0
  0
MTEXT
  5
73E
330
656
100
AcDbEntity
  8
Bemaßung (ISO)
440
 16777216
100
AcDbMText
 10
40.1950291457921
 20
23.76550222952828
 30
0.0
 40
3.5
 41
0.0
 46
0.0
 71
     1
 72
     1
  1
\A1;16
  7
Notiztext (DIN)
 73
     1
 44
1.0
  0
POINT
  5
73F
330
656
100
AcDbEntity
  8
Defpoints
 62
     0
440
 16777216
100
AcDbPoint
 10
33.94502909037842
 20
11.17720412350988
 30
0.0
  0
POINT
  5
740
330
656
100
AcDbEntity
  8
Defpoints
 62
     0
440
 16777216
100
AcDbPoint
 10
49.94502909037841
 20
13.67720412350988
 30
0.0
  0
POINT
  5
741
330
656
100
AcDbEntity
  8
Defpoints
 62
     0
440
 16777216
100
AcDbPoint
 10
49.94502909037841
 20
19.46550222952828
 30
0.0
  0
ENDBLK
  5
658
330
656
100
AcDbEntity
  8
0
100
AcDbBlockEnd
  0
ENDSEC
  0
SECTION
  2
ENTITIES
  0
LINE
  5
33A
330
70
100
AcDbEntity
  8
Mittellinie (ISO)
  6
Continuous
100
AcDbLine
 10
33.44502909037841
 20
13.67720412350988
 30
0.0
 11
50.44502909037841
 21
13.67720412350988
 31
0.0
  0
LINE
  5
33B
330
70
100
AcDbEntity
  8
Mittellinie (ISO)
  6
Continuous
100
AcDbLine
 10
45.94502909037841
 20
16.17720412350988
 30
0.0
 11
45.94502909037841
 21
11.17720412350988
 31
0.0
  0
LINE
  5
33C
330
70
100
AcDbEntity
  8
Mittelpunktmarkierung (ISO)
  6
Continuous
100
AcDbLine
 10
11.64868800079199
 20
13.67720412350989
 30
0.0
 11
6.648688000791995
 21
13.67720412350989
 31
0.0
  0
LINE
  5
33D
330
70
100
AcDbEntity
  8
Mittelpunktmarkierung (ISO)
  6
Continuous
100
AcDbLine
 10
7.148688000791995
 20
18.11907344283081
 30
0.0
 11
7.148688000791995
 21
8.973100105153847
 31
0.0
  0
LINE
  5
33E
330
70
100
AcDbEntity
  8
Mittelpunktmarkierung (ISO)
  6
Continuous
100
AcDbLine
 10
7.648688000791996
 20
13.67720412350989
 30
0.0
 11
2.648688000791996
 21
13.67720412350989
 31
0.0
  0
LINE
  5
33F
330
70
100
AcDbEntity
  8
Mittelpunktmarkierung (ISO)
  6
Continuous
100
AcDbLine
 10
7.148688000791995
 20
14.17720412350989
 30
0.0
 11
7.148688000791995
 21
13.17720412350989
 31
0.0
  0
LINE
  5
340
330
70
100
AcDbEntity
  8
Sichtbar (ISO)
100
AcDbLine
 10
38.94502909037841
 20
11.67720412350988
 30
0.0
 11
43.39502909037841
 21
11.67720412350988
 31
0.0
  0
LINE
  5
341
330
70
100
AcDbEntity
  8
Sichtbar (ISO)
100
AcDbLine
 10
43.39502909037841
 20
11.67720412350988
 30
0.0
 11
43.89502909037841
 21
12.17720412350988
 31
0.0
  0
LINE
  5
342
330
70
100
AcDbEntity
  8
Sichtbar (ISO)
100
AcDbLine
 10
43.89502909037841
 20
12.17720412350988
 30
0.0
 11
43.89502909037841
 21
15.17720412350988
 31
0.0
  0
LINE
  5
343
330
70
100
AcDbEntity
  8
Sichtbar (ISO)
100
AcDbLine
 10
43.89502909037841
 20
15.17720412350988
 30
0.0
 11
43.39502909037841
 21
15.67720412350988
 31
0.0
  0
LINE
  5
344
330
70
100
AcDbEntity
  8
Sichtbar (ISO)
100
AcDbLine
 10
43.39502909037841
 20
15.67720412350988
 30
0.0
 11
38.94502909037841
 21
15.67720412350988
 31
0.0
  0
LINE
  5
345
330
70
100
AcDbEntity
  8
Sichtbar (ISO)
100
AcDbLine
 10
38.94502909037841
 20
15.67720412350988
 30
0.0
 11
38.94502909037841
 21
17.67720412350988
 31
0.0
  0
LINE
  5
346
330
70
100
AcDbEntity
  8
Sichtbar (ISO)
100
AcDbLine
 10
38.94502909037841
 20
17.67720412350988
 30
0.0
 11
34.44502909037841
 21
17.67720412350988
 31
0.0
  0
LINE
  5
347
330
70
100
AcDbEntity
  8
Sichtbar (ISO)
100
AcDbLine
 10
34.44502909037841
 20
17.67720412350988
 30
0.0
 11
33.94502909037842
 21
17.17720412350988
 31
0.0
  0
LINE
  5
348
330
70
100
AcDbEntity
  8
Sichtbar (ISO)
100
AcDbLine
 10
33.94502909037842
 20
17.17720412350988
 30
0.0
 11
33.94502909037842
 21
16.17720412350988
 31
0.0
  0
LINE
  5
349
330
70
100
AcDbEntity
  8
Sichtbar (ISO)
100
AcDbLine
 10
33.94502909037842
 20
16.17720412350988
 30
0.0
 11
35.76368243832573
 21
15.12720412350988
 31
0.0
  0
LINE
  5
34A
330
70
100
AcDbEntity
  8
Sichtbar (ISO)
100
AcDbLine
 10
35.76368243832573
 20
15.12720412350988
 30
0.0
 11
41.94502909037841
 21
15.12720412350988
 31
0.0
  0
LINE
  5
34B
330
70
100
AcDbEntity
  8
Sichtbar (ISO)
100
AcDbLine
 10
47.9950290903784
 20
12.17720412350988
 30
0.0
 11
48.49502909037841
 21
11.67720412350988
 31
0.0
  0
LINE
  5
34C
330
70
100
AcDbEntity
  8
Sichtbar (ISO)
100
AcDbLine
 10
48.49502909037841
 20
11.67720412350988
 30
0.0
 11
49.40913070551617
 21
11.67720412350988
 31
0.0
  0
ARC
  5
34D
330
70
100
AcDbEntity
  8
Sichtbar (ISO)
100
AcDbCircle
 10
45.94502909037841
 20
13.67720412350988
 30
0.0
 40
3.999999999999999
100
AcDbArc
 50
330.0
 51
30.00000000000005
  0
LINE
  5
34E
330
70
100
AcDbEntity
  8
Sichtbar (ISO)
100
AcDbLine
 10
42.81627698796838
 20
13.67720412350988
 30
0.0
 11
41.94502909037841
 21
12.22720412350988
 31
0.0
  0
LINE
  5
34F
330
70
100
AcDbEntity
  8
Sichtbar (ISO)
100
AcDbLine
 10
48.49502909037841
 20
15.67720412350988
 30
0.0
 11
47.9950290903784
 21
15.17720412350988
 31
0.0
  0
LINE
  5
350
330
70
100
AcDbEntity
  8
Sichtbar (ISO)
100
AcDbLine
 10
47.9950290903784
 20
15.17720412350988
 30
0.0
 11
47.9950290903784
 21
12.17720412350988
 31
0.0
  0
LINE
  5
351
330
70
100
AcDbEntity
  8
Sichtbar (ISO)
100
AcDbLine
 10
47.9950290903784
 20
12.17720412350988
 30
0.0
 11
43.89502909037841
 21
12.17720412350988
 31
0.0
  0
LINE
  5
352
330
70
100
AcDbEntity
  8
Sichtbar (ISO)
100
AcDbLine
 10
43.39502909037841
 20
11.67720412350988
 30
0.0
 11
48.49502909037841
 21
11.67720412350988
 31
0.0
  0
LINE
  5
353
330
70
100
AcDbEntity
  8
Sichtbar (ISO)
100
AcDbLine
 10
43.89502909037841
 20
15.17720412350988
 30
0.0
 11
47.9950290903784
 21
15.17720412350988
 31
0.0
  0
LINE
  5
354
330
70
100
AcDbEntity
  8
Sichtbar (ISO)
100
AcDbLine
 10
48.49502909037841
 20
15.67720412350988
 30
0.0
 11
43.39502909037841
 21
15.67720412350988
 31
0.0
  0
LINE
  5
355
330
70
100
AcDbEntity
  8
Sichtbar (ISO)
100
AcDbLine
 10
33.94502909037842
 20
11.17720412350988
 30
0.0
 11
33.94502909037842
 21
16.17720412350988
 31
0.0
  0
LINE
  5
356
330
70
100
AcDbEntity
  8
Sichtbar (ISO)
100
AcDbLine
 10
35.76368243832573
 20
12.22720412350988
 30
0.0
 11
35.76368243832573
 21
15.12720412350988
 31
0.0
  0
LINE
  5
357
330
70
100
AcDbEntity
  8
Sichtbar (ISO)
100
AcDbLine
 10
41.94502909037841
 20
12.22720412350988
 30
0.0
 11
41.94502909037841
 21
15.12720412350988
 31
0.0
  0
LINE
  5
358
330
70
100
AcDbEntity
  8
Sichtbar (ISO)
100
AcDbLine
 10
40.94502909037841
 20
11.95670412350988
 30
0.0
 11
40.94502909037841
 21
15.39770412350988
 31
0.0
  0
LINE
  5
359
330
70
100
AcDbEntity
  8
Sichtbar (ISO)
100
AcDbLine
 10
10.61278961592975
 20
11.67720412350989
 30
0.0
 11
3.684586385654238
 21
11.67720412350989
 31
0.0
  0
ARC
  5
35A
330
70
100
AcDbEntity
  8
Sichtbar (ISO)
100
AcDbCircle
 10
7.148688000791993
 20
13.67720412350989
 30
0.0
 40
4.000000000000001
100
AcDbArc
 50
210.0
 51
330.0
  0
LINE
  5
35B
330
70
100
AcDbEntity
  8
Sichtbar (ISO)
100
AcDbLine
 10
3.684586385654238
 20
15.67720412350989
 30
0.0
 11
10.61278961592975
 21
15.67720412350989
 31
0.0
  0
ARC
  5
35C
330
70
100
AcDbEntity
  8
Sichtbar (ISO)
100
AcDbCircle
 10
7.148688000791993
 20
13.67720412350989
 30
0.0
 40
4.000000000000001
100
AcDbArc
 50
29.99999999999994
 51
150.0
  0
ARC
  5
35D
330
70
100
AcDbEntity
  8
Sichtbar (ISO)
100
AcDbCircle
 10
7.148688000791995
 20
13.67720412350989
 30
0.0
 40
4.000000000000001
100
AcDbArc
 50
150.0
 51
210.0
  0
ARC
  5
35E
330
70
100
AcDbEntity
  8
Sichtbar (ISO)
100
AcDbCircle
 10
7.148688000791995
 20
13.67720412350989
 30
0.0
 40
3.999999999999999
100
AcDbArc
 50
329.9999999999997
 51
29.9999999999999
  0
LINE
  5
35F
330
70
100
AcDbEntity
  8
Sichtbar (ISO)
100
AcDbLine
 10
41.94502909037841
 20
15.12720412350988
 30
0.0
 11
42.81627698796838
 21
13.67720412350988
 31
0.0
  0
LINE
  5
360
330
70
100
AcDbEntity
  8
Sichtbar (ISO)
100
AcDbLine
 10
49.40913070551617
 20
15.67720412350988
 30
0.0
 11
48.49502909037841
 21
15.67720412350988
 31
0.0
  0
LINE
  5
361
330
70
100
AcDbEntity
  8
Sichtbar (ISO)
100
AcDbLine
 10
41.94502909037841
 20
12.22720412350988
 30
0.0
 11
35.76368243832573
 21
12.22720412350988
 31
0.0
  0
LINE
  5
362
330
70
100
AcDbEntity
  8
Sichtbar (ISO)
100
AcDbLine
 10
35.76368243832573
 20
12.22720412350988
 30
0.0
 11
33.94502909037842
 21
11.17720412350988
 31
0.0
  0
LINE
  5
363
330
70
100
AcDbEntity
  8
Sichtbar (ISO)
100
AcDbLine
 10
33.94502909037842
 20
11.17720412350988
 30
0.0
 11
33.94502909037842
 21
10.17720412350988
 31
0.0
  0
LINE
  5
364
330
70
100
AcDbEntity
  8
Sichtbar (ISO)
100
AcDbLine
 10
33.94502909037842
 20
10.17720412350988
 30
0.0
 11
34.44502909037841
 21
9.677204123509881
 31
0.0
  0
LINE
  5
365
330
70
100
AcDbEntity
  8
Sichtbar (ISO)
100
AcDbLine
 10
34.44502909037841
 20
9.677204123509881
 30
0.0
 11
38.94502909037841
 21
9.677204123509881
 31
0.0
  0
LINE
  5
366
330
70
100
AcDbEntity
  8
Sichtbar (ISO)
100
AcDbLine
 10
38.94502909037841
 20
9.677204123509881
 30
0.0
 11
38.94502909037841
 21
11.67720412350988
 31
0.0
  0
LINE
  5
367
330
70
100
AcDbEntity
  8
Sichtbar schmal (ISO)
100
AcDbLine
 10
40.94502909037841
 20
11.95670412350988
 30
0.0
 11
35.29516269487836
 21
11.95670412350988
 31
0.0
  0
LINE
  5
368
330
70
100
AcDbEntity
  8
Sichtbar schmal (ISO)
100
AcDbLine
 10
35.29516269487836
 20
15.39770412350988
 30
0.0
 11
40.94502909037841
 21
15.39770412350988
 31
0.0
  0
MTEXT
  5
369
330
70
100
AcDbEntity
  8
Symbol (ISO)
100
AcDbMText
 10
47.64244863171455
 20
22.99354374267003
 30
0.0
 40
1.050000041723251
 41
0.0
 46
0.0
 71
     7
 72
     1
  1
\fISOCPEUR|b0|i0;\H1.0500;A-A ( 5 : 1 )
  7
Bezeichnungstext (DIN)
 73
     2
 44
1.0
  0
INSERT
  5
36A
330
70
100
AcDbEntity
  8
0
100
AcDbBlockReference
  2
2DTransSchnitt0
 10
-14.04621591157848
 20
-23.45968105528458
 30
0.0
 41
0.2
 42
0.2
 43
0.2
  0
INSERT
  5
36B
330
70
100
AcDbEntity
  8
0
100
AcDbBlockReference
  2
Schraffur_1
 10
-14.04621591157848
 20
-23.45968105528458
 30
0.0
  0
DIMENSION
  5
36C
330
70
100
AcDbEntity
  8
Bemaßung (ISO)
100
AcDbDimension
280
     0
  2
*D30
 10
32.81237868218447
 20
11.95670412350988
 30
0.0
 11
32.81237868218447
 21
13.67720412350988
 31
0.0
 70
   160
  1
 M3,5 
 42
3.441000000000002
 73
     0
 74
     0
 75
     0
  3
Standard (DIN)
100
AcDbAlignedDimension
 13
34.42913729109391
 23
15.39770412350988
 33
0.0
 14
34.42913729109391
 24
11.95670412350988
 34
0.0
 50
90.0
100
AcDbRotatedDimension
1001
ACAD
1000
DSTYLE
1002
{
1070
   172
1070
     1
1070
   289
1070
     1
1070
   271
1070
     2
1070
   147
1040
0.8
1070
    72
1070
     0
1070
    71
1070
     0
1070
   272
1070
     2
1070
    48
1040
0.0
1070
    47
1040
0.0
1002
}
  0
DIMENSION
  5
478
330
70
100
AcDbEntity
  8
Bemaßung (ISO)
100
AcDbDimension
280
     0
  2
*D31
 10
23.6552839633999
 20
9.677204123509882
 30
0.0
 11
23.6552839633999
 21
13.00254652966792
 31
0.0
 70
   160
  1
{{\fAIGDT|b0|i0;\H0.0000;\fAIGDT|b0|i0;\H0.0000;n\fISOCPEUR|b0|i0;\H0.0000;\fISOCPEUR|b0|i0;\H0.0000;}<>}
 42
8.0
 73
     0
 74
     0
 75
     0
  3
Standard (DIN)
100
AcDbAlignedDimension
 13
34.44502909037841
 23
17.67720412350988
 33
0.0
 14
34.44502909037841
 24
9.677204123509881
 34
0.0
 50
90.0
100
AcDbRotatedDimension
1001
ACAD
1000
DSTYLE
1002
{
1070
   172
1070
     0
1070
   289
1070
     1
1070
   271
1070
     2
1070
   147
1040
0.8
1070
    72
1070
     0
1070
    71
1070
     0
1070
   272
1070
     2
1070
    48
1040
0.0
1070
    47
1040
0.0
1002
}
  0
DIMENSION
  5
568
330
70
100
AcDbEntity
  8
Bemaßung (ISO)
100
AcDbDimension
280
     0
  2
*D32
 10
45.94502909037841
 20
3.478190761452665
 30
0.0
 11
39.94502909037842
 21
3.478190761452665
 31
0.0
 70
   160
  1
<>
 42
12.00000000000001
 73
     0
 74
     0
 75
     0
  3
Standard (DIN)
100
AcDbAlignedDimension
 13
33.94502909037842
 23
10.17720412350988
 33
0.0
 14
45.94502909037841
 24
11.17720412350988
 34
0.0
 50
180.0
100
AcDbRotatedDimension
1001
ACAD
1000
DSTYLE
1002
{
1070
   172
1070
     0
1070
   289
1070
     1
1070
   271
1070
     2
1070
   147
1040
0.8
1070
    72
1070
     0
1070
    71
1070
     0
1070
   272
1070
     2
1070
    48
1040
0.0
1070
    47
1040
0.0
1002
}
  0
DIMENSION
  5
655
330
70
100
AcDbEntity
  8
Bemaßung (ISO)
100
AcDbDimension
280
     0
  2
*D33
 10
49.94502909037841
 20
19.46550222952828
 30
0.0
 11
41.94502909037841
 21
19.46550222952828
 31
0.0
 70
   160
  1
<>
 42
16.0
 73
     0
 74
     0
 75
     0
  3
Standard (DIN)
100
AcDbAlignedDimension
 13
33.94502909037842
 23
11.17720412350988
 33
0.0
 14
49.94502909037841
 24
13.67720412350988
 34
0.0
 50
180.0
100
AcDbRotatedDimension
1001
ACAD
1000
DSTYLE
1002
{
1070
   172
1070
     0
1070
   289
1070
     1
1070
   271
1070
     2
1070
   147
1040
0.8
1070
    72
1070
     0
1070
    71
1070
     0
1070
   272
1070
     2
1070
    48
1040
0.0
1070
    47
1040
0.0
1002
}
  0
ENDSEC
  0
SECTION
  2
OBJECTS
  0
DICTIONARY
  5
C
330
0
100
AcDbDictionary
281
     1
  3
ACAD_CIP_PREVIOUS_PRODUCT_INFO
350
742
  3
ACAD_COLOR
350
63
  3
ACAD_DETAILVIEWSTYLE
350
6A
  3
ACAD_GROUP
350
D
  3
ACAD_LAYOUT
350
62
  3
ACAD_MATERIAL
350
10
  3
ACAD_MLEADERSTYLE
350
66
  3
ACAD_MLINESTYLE
350
5F
  3
ACAD_PLOTSETTINGS
350
61
  3
ACAD_PLOTSTYLENAME
350
E
  3
ACAD_SCALELIST
350
42
  3
ACAD_SECTIONVIEWSTYLE
350
68
  3
ACAD_TABLESTYLE
350
64
  3
ACAD_VISUALSTYLE
350
29
  3
ACDB_RECOMPOSE_DATA
350
79C
  3
AcDbVariableDictionary
350
743
  0
DICTIONARY
  5
74F
330
1B0
100
AcDbDictionary
280
     1
281
     1
  3
ACAD_MLATT
360
751
  3
ACAD_XREC_ROUNDTRIP
360
750
  0
DICTIONARY
  5
752
330
1B5
100
AcDbDictionary
280
     1
281
     1
  3
ACAD_MLATT
360
754
  3
ACAD_XREC_ROUNDTRIP
360
753
  0
DICTIONARY
  5
755
330
1DA
100
AcDbDictionary
280
     1
281
     1
  3
ACAD_MLATT
360
757
  3
ACAD_XREC_ROUNDTRIP
360
756
  0
DICTIONARY
  5
758
330
1DB
100
AcDbDictionary
280
     1
281
     1
  3
ACAD_MLATT
360
75A
  3
ACAD_XREC_ROUNDTRIP
360
759
  0
DICTIONARY
  5
75C
330
1EB
100
AcDbDictionary
280
     1
281
     1
  3
ACAD_MTEXT_2008_RT
360
75D
  0
DICTIONARY
  5
75E
330
1EF
100
AcDbDictionary
280
     1
281
     1
  3
ACAD_MTEXT_2008_RT
360
75F
  0
DICTIONARY
  5
760
330
261
100
AcDbDictionary
280
     1
281
     1
  3
ACAD_MLATT
360
762
  3
ACAD_XREC_ROUNDTRIP
360
761
  0
DICTIONARY
  5
763
330
262
100
AcDbDictionary
280
     1
281
     1
  3
ACAD_MLATT
360
765
  3
ACAD_XREC_ROUNDTRIP
360
764
  0
DICTIONARY
  5
766
330
263
100
AcDbDictionary
280
     1
281
     1
  3
ACAD_MLATT
360
768
  3
ACAD_XREC_ROUNDTRIP
360
767
  0
DICTIONARY
  5
769
330
264
100
AcDbDictionary
280
     1
281
     1
  3
ACAD_MLATT
360
76B
  3
ACAD_XREC_ROUNDTRIP
360
76A
  0
DICTIONARY
  5
76C
330
265
100
AcDbDictionary
280
     1
281
     1
  3
ACAD_MLATT
360
76E
  3
ACAD_XREC_ROUNDTRIP
360
76D
  0
DICTIONARY
  5
76F
330
266
100
AcDbDictionary
280
     1
281
     1
  3
ACAD_MLATT
360
771
  3
ACAD_XREC_ROUNDTRIP
360
770
  0
DICTIONARY
  5
772
330
267
100
AcDbDictionary
280
     1
281
     1
  3
ACAD_MLATT
360
774
  3
ACAD_XREC_ROUNDTRIP
360
773
  0
DICTIONARY
  5
775
330
268
100
AcDbDictionary
280
     1
281
     1
  3
ACAD_MLATT
360
777
  3
ACAD_XREC_ROUNDTRIP
360
776
  0
DICTIONARY
  5
778
330
269
100
AcDbDictionary
280
     1
281
     1
  3
ACAD_MLATT
360
77A
  3
ACAD_XREC_ROUNDTRIP
360
779
  0
DICTIONARY
  5
77B
330
26A
100
AcDbDictionary
280
     1
281
     1
  3
ACAD_MLATT
360
77D
  3
ACAD_XREC_ROUNDTRIP
360
77C
  0
DICTIONARY
  5
77E
330
26B
100
AcDbDictionary
280
     1
281
     1
  3
ACAD_MLATT
360
780
  3
ACAD_XREC_ROUNDTRIP
360
77F
  0
DICTIONARY
  5
781
330
26C
100
AcDbDictionary
280
     1
281
     1
  3
ACAD_MLATT
360
783
  3
ACAD_XREC_ROUNDTRIP
360
782
  0
DICTIONARY
  5
784
330
26D
100
AcDbDictionary
280
     1
281
     1
  3
ACAD_MLATT
360
786
  3
ACAD_XREC_ROUNDTRIP
360
785
  0
DICTIONARY
  5
787
330
26E
100
AcDbDictionary
280
     1
281
     1
  3
ACAD_MLATT
360
789
  3
ACAD_XREC_ROUNDTRIP
360
788
  0
DICTIONARY
  5
78A
330
26F
100
AcDbDictionary
280
     1
281
     1
  3
ACAD_MLATT
360
78C
  3
ACAD_XREC_ROUNDTRIP
360
78B
  0
DICTIONARY
  5
78D
330
270
100
AcDbDictionary
280
     1
281
     1
  3
ACAD_MLATT
360
78F
  3
ACAD_XREC_ROUNDTRIP
360
78E
  0
DICTIONARY
  5
790
330
271
100
AcDbDictionary
280
     1
281
     1
  3
ACAD_MLATT
360
792
  3
ACAD_XREC_ROUNDTRIP
360
791
  0
DICTIONARY
  5
793
330
272
100
AcDbDictionary
280
     1
281
     1
  3
ACAD_MLATT
360
795
  3
ACAD_XREC_ROUNDTRIP
360
794
  0
DICTIONARY
  5
796
330
273
100
AcDbDictionary
280
     1
281
     1
  3
ACAD_MLATT
360
798
  3
ACAD_XREC_ROUNDTRIP
360
797
  0
DICTIONARY
  5
799
330
274
100
AcDbDictionary
280
     1
281
     1
  3
ACAD_MLATT
360
79B
  3
ACAD_XREC_ROUNDTRIP
360
79A
  0
XRECORD
  5
742
102
{ACAD_REACTORS
330
C
102
}
330
C
100
AcDbXrecord
280
     1
300
INVPROSA
300
2016
300
86462PDSU_2016_0F
  0
DICTIONARY
  5
63
102
{ACAD_REACTORS
330
C
102
}
330
C
100
AcDbDictionary
281
     1
  0
DICTIONARY
  5
6A
102
{ACAD_REACTORS
330
C
102
}
330
C
100
AcDbDictionary
281
     1
  3
Imperial24
350
6B
  0
DICTIONARY
  5
D
102
{ACAD_REACTORS
330
C
102
}
330
C
100
AcDbDictionary
281
     1
  0
DICTIONARY
  5
62
102
{ACAD_REACTORS
330
C
102
}
330
C
100
AcDbDictionary
281
     1
  3
Layout1
350
6F
  3
Layout2
350
77
  3
Model
350
73
  0
DICTIONARY
  5
10
102
{ACAD_REACTORS
330
C
102
}
330
C
100
AcDbDictionary
281
     1
  3
ByBlock
350
19
  3
ByLayer
350
11
  3
Global
350
21
  0
DICTIONARY
  5
66
102
{ACAD_REACTORS
330
C
102
}
330
C
100
AcDbDictionary
281
     1
  3
Standard
350
67
  0
DICTIONARY
  5
5F
102
{ACAD_REACTORS
330
C
102
}
330
C
100
AcDbDictionary
281
     1
  3
Standard
350
60
  0
DICTIONARY
  5
61
102
{ACAD_REACTORS
330
C
102
}
330
C
100
AcDbDictionary
281
     1
  0
ACDBDICTIONARYWDFLT
  5
E
102
{ACAD_REACTORS
330
C
102
}
330
C
100
AcDbDictionary
281
     1
  3
Normal
350
F
100
AcDbDictionaryWithDefault
340
F
  0
DICTIONARY
  5
42
102
{ACAD_REACTORS
330
C
102
}
330
C
100
AcDbDictionary
281
     1
  3
A0
350
43
  3
A1
350
44
  3
A2
350
45
  3
A3
350
46
  3
A4
350
47
  3
A5
350
48
  3
A6
350
49
  3
A7
350
4A
  3
A8
350
4B
  3
A9
350
4C
  3
B0
350
4D
  3
B1
350
4E
  3
B2
350
4F
  3
B3
350
50
  3
B4
350
51
  3
B5
350
52
  3
B6
350
53
  0
DICTIONARY
  5
68
102
{ACAD_REACTORS
330
C
102
}
330
C
100
AcDbDictionary
281
     1
  3
Imperial24
350
69
  0
DICTIONARY
  5
64
102
{ACAD_REACTORS
330
C
102
}
330
C
100
AcDbDictionary
281
     1
  3
Standard
350
65
  0
DICTIONARY
  5
29
102
{ACAD_REACTORS
330
C
102
}
330
C
100
AcDbDictionary
281
     1
  3
2dWireframe
350
2F
  3
Basic
350
2E
  3
Brighten
350
35
  3
ColorChange
350
39
  3
Conceptual
350
32
  3
Dim
350
34
  3
EdgeColorOff
350
41
  3
Facepattern
350
38
  3
Flat
350
2A
  3
FlatWithEdges
350
2B
  3
Gouraud
350
2C
  3
GouraudWithEdges
350
2D
  3
Hidden
350
31
  3
JitterOff
350
3F
  3
Linepattern
350
37
  3
OverhangOff
350
40
  3
Realistic
350
33
  3
Shaded
350
3E
  3
Shaded with edges
350
3D
  3
Shades of Gray
350
3A
  3
Sketchy
350
3B
  3
Thicken
350
36
  3
Wireframe
350
30
  3
X-Ray
350
3C
  0
XRECORD
  5
79C
102
{ACAD_REACTORS
330
C
102
}
330
C
100
AcDbXrecord
280
     1
 90
        1
330
65
330
69
330
6B
330
1B0
330
1B5
330
1DA
330
1DB
330
1EB
330
1EF
330
261
330
262
330
263
330
264
330
265
330
266
330
267
330
268
330
269
330
26A
330
26B
330
26C
330
26D
330
26E
330
26F
330
270
330
271
330
272
330
273
330
274
  0
DICTIONARY
  5
743
102
{ACAD_REACTORS
330
C
102
}
330
C
100
AcDbDictionary
281
     1
  3
CANNOSCALE
350
748
  3
CMLEADERSTYLE
350
745
  3
CTABLESTYLE
350
744
  3
CVIEWDETAILSTYLE
350
746
  3
CVIEWSECTIONSTYLE
350
747
  0
XRECORD
  5
751
102
{ACAD_REACTORS
330
74F
102
}
330
74F
100
AcDbXrecord
280
     1
 70
     4
 70
     0
 70
     0
 40
1.0
  2
Kolbenstangenlänge_=_Hub_+_?_mm
  1
Embedded Object
 10
116.2125009366513
 20
19.00000000000002
 30
0.0
 40
3.499999940395355
 41
0.0
 46
0.0
 71
     1
 72
     5
  1

  7
Notiztext (DIN)
 73
     1
 44
1.0
  0
XRECORD
  5
750
102
{ACAD_REACTORS
330
74F
102
}
330
74F
100
AcDbXrecord
280
     1
102
ACAD_MATT_HEIGHT
140
3.499999940395355
  0
XRECORD
  5
754
102
{ACAD_REACTORS
330
752
102
}
330
752
100
AcDbXrecord
280
     1
 70
     4
 70
     0
 70
     0
 40
1.0
  2
Gesamtlänge_ausgefahren_2_x_HUB_+
  1
Embedded Object
 10
116.2113753446558
 20
11.99999999999999
 30
0.0
 40
3.499999940395355
 41
0.0
 46
0.0
 71
     1
 72
     5
  1

  7
Notiztext (DIN)
 73
     1
 44
1.0
  0
XRECORD
  5
753
102
{ACAD_REACTORS
330
752
102
}
330
752
100
AcDbXrecord
280
     1
102
ACAD_MATT_HEIGHT
140
3.499999940395355
  0
XRECORD
  5
757
102
{ACAD_REACTORS
330
755
102
}
330
755
100
AcDbXrecord
280
     1
 70
     4
 70
     0
 70
     0
 40
1.0
  2
A_oder_B
  1
Embedded Object
 10
-16.01934532153102
 20
-6.613995777682752
 30
0.0
 40
2.5
 41
21.91300539665484
 46
0.0
 71
     1
 72
     5
  1

  7
Textstil12
 73
     1
 44
1.0
  0
XRECORD
  5
756
102
{ACAD_REACTORS
330
755
102
}
330
755
100
AcDbXrecord
280
     1
102
ACAD_MATT_HEIGHT
140
2.5
  0
XRECORD
  5
75A
102
{ACAD_REACTORS
330
758
102
}
330
758
100
AcDbXrecord
280
     1
 70
     4
 70
     0
 70
     0
 40
1.0
  2
Druck
  1
Embedded Object
 10
-15.62320944112755
 20
-12.29537757685417
 30
0.0
 40
2.5
 41
12.38720218023221
 46
0.0
 71
     5
 72
     5
  1

  7
Textstil12
 73
     1
 44
1.0
  0
XRECORD
  5
759
102
{ACAD_REACTORS
330
758
102
}
330
758
100
AcDbXrecord
280
     1
102
ACAD_MATT_HEIGHT
140
2.5
  0
XRECORD
  5
75D
102
{ACAD_REACTORS
330
75C
102
}
330
75C
100
AcDbXrecord
280
     1
 40
875122.0
  1
\pxsm0.94;\fISOCPEUR|b0|i0;\H2.5000;Hartverchromt\PSchichtdicke 15-20 \fSymbol|b0|i0;\H2.5000;m\fSymbol|b0|i0;\H2.9998;\P\fISOCPEUR|b0|i0;\H2.9998; \P
  0
XRECORD
  5
75F
102
{ACAD_REACTORS
330
75E
102
}
330
75E
100
AcDbXrecord
280
     1
 40
182748.0
  1
\pxsm0.94;\fISOCPEUR|b0|i0;\H7.0000;Nur zur Information\fISOCPEUR|b0|i0;\H2.5000;\P\fISOCPEUR|b0|i0;\H14.0000;Nicht Freigegeben !
  0
XRECORD
  5
762
102
{ACAD_REACTORS
330
760
102
}
330
760
100
AcDbXrecord
280
     1
 70
     4
 70
     0
 70
     0
 40
1.0
  2
Mobilgear_SHC_XMP_220
  1
Embedded Object
 10
48.74218633071293
 20
-68.46886235190028
 30
0.0
 40
3.499999940395355
 41
0.0
 46
0.0
 71
     1
 72
     5
  1

  7
Notiztext (DIN)
 73
     1
 44
1.0
  0
XRECORD
  5
761
102
{ACAD_REACTORS
330
760
102
}
330
760
100
AcDbXrecord
280
     1
102
ACAD_MATT_HEIGHT
140
3.499999940395355
  0
XRECORD
  5
765
102
{ACAD_REACTORS
330
763
102
}
330
763
100
AcDbXrecord
280
     1
 70
     4
 70
     0
 70
     0
 40
1.0
  2
Mobilgear_SHC_XMP_680
  1
Embedded Object
 10
48.28724555430017
 20
-61.21134341075343
 30
0.0
 40
3.499999940395355
 41
0.0
 46
0.0
 71
     1
 72
     5
  1

  7
Notiztext (DIN)
 73
     1
 44
1.0
  0
XRECORD
  5
764
102
{ACAD_REACTORS
330
763
102
}
330
763
100
AcDbXrecord
280
     1
102
ACAD_MATT_HEIGHT
140
3.499999940395355
  0
XRECORD
  5
768
102
{ACAD_REACTORS
330
766
102
}
330
766
100
AcDbXrecord
280
     1
 70
     4
 70
     0
 70
     0
 40
1.0
  2
SHC_639
  1
Embedded Object
 10
48.22823664392223
 20
-54.66628417952385
 30
0.0
 40
3.499999940395355
 41
0.0
 46
0.0
 71
     1
 72
     5
  1

  7
Notiztext (DIN)
 73
     1
 44
1.0
  0
XRECORD
  5
767
102
{ACAD_REACTORS
330
766
102
}
330
766
100
AcDbXrecord
280
     1
102
ACAD_MATT_HEIGHT
140
3.499999940395355
  0
XRECORD
  5
76B
102
{ACAD_REACTORS
330
769
102
}
330
769
100
AcDbXrecord
280
     1
 70
     4
 70
     0
 70
     0
 40
1.0
  2
Vitaminöl_ZH-M
  1
Embedded Object
 10
48.10913062451696
 20
-47.58584200525625
 30
0.0
 40
3.499999940395355
 41
0.0
 46
0.0
 71
     1
 72
     5
  1

  7
Notiztext (DIN)
 73
     1
 44
1.0
  0
XRECORD
  5
76A
102
{ACAD_REACTORS
330
769
102
}
330
769
100
AcDbXrecord
280
     1
102
ACAD_MATT_HEIGHT
140
3.499999940395355
  0
XRECORD
  5
76E
102
{ACAD_REACTORS
330
76C
102
}
330
76C
100
AcDbXrecord
280
     1
 70
     4
 70
     0
 70
     0
 40
1.0
  2
AWH-M68
  1
Embedded Object
 10
47.99160518675154
 20
-40.72682027342763
 30
0.0
 40
3.499999940395355
 41
0.0
 46
0.0
 71
     1
 72
     5
  1

  7
Notiztext (DIN)
 73
     1
 44
1.0
  0
XRECORD
  5
76D
102
{ACAD_REACTORS
330
76C
102
}
330
76C
100
AcDbXrecord
280
     1
102
ACAD_MATT_HEIGHT
140
3.499999940395355
  0
XRECORD
  5
771
102
{ACAD_REACTORS
330
76F
102
}
330
76F
100
AcDbXrecord
280
     1
 70
     4
 70
     0
 70
     0
 40
1.0
  2
AWH-M32
  1
Embedded Object
 10
48.09031610359792
 20
-33.52939844580405
 30
0.0
 40
3.499999940395355
 41
0.0
 46
0.0
 71
     1
 72
     5
  1

  7
Notiztext (DIN)
 73
     1
 44
1.0
  0
XRECORD
  5
770
102
{ACAD_REACTORS
330
76F
102
}
330
76F
100
AcDbXrecord
280
     1
102
ACAD_MATT_HEIGHT
140
3.499999940395355
  0
XRECORD
  5
774
102
{ACAD_REACTORS
330
772
102
}
330
772
100
AcDbXrecord
280
     1
 70
     4
 70
     0
 70
     0
 40
1.0
  2
HLP_100
  1
Embedded Object
 10
48.48827682435022
 20
-26.34764993086041
 30
0.0
 40
3.499999940395355
 41
0.0
 46
0.0
 71
     1
 72
     5
  1

  7
Notiztext (DIN)
 73
     1
 44
1.0
  0
XRECORD
  5
773
102
{ACAD_REACTORS
330
772
102
}
330
772
100
AcDbXrecord
280
     1
102
ACAD_MATT_HEIGHT
140
3.499999940395355
  0
XRECORD
  5
777
102
{ACAD_REACTORS
330
775
102
}
330
775
100
AcDbXrecord
280
     1
 70
     4
 70
     0
 70
     0
 40
1.0
  2
HLP_32
  1
Embedded Object
 10
48.48827682435022
 20
-19.34764993086039
 30
0.0
 40
3.499999940395355
 41
0.0
 46
0.0
 71
     1
 72
     5
  1

  7
Notiztext (DIN)
 73
     1
 44
1.0
  0
XRECORD
  5
776
102
{ACAD_REACTORS
330
775
102
}
330
775
100
AcDbXrecord
280
     1
102
ACAD_MATT_HEIGHT
140
3.499999940395355
  0
XRECORD
  5
77A
102
{ACAD_REACTORS
330
778
102
}
330
778
100
AcDbXrecord
280
     1
 70
     4
 70
     0
 70
     0
 40
1.0
  2
Vebis_K68
  1
Embedded Object
 10
48.48827682435018
 20
-11.99043531524804
 30
0.0
 40
3.499999940395355
 41
0.0
 46
0.0
 71
     1
 72
     5
  1

  7
Notiztext (DIN)
 73
     1
 44
1.0
  0
XRECORD
  5
779
102
{ACAD_REACTORS
330
778
102
}
330
778
100
AcDbXrecord
280
     1
102
ACAD_MATT_HEIGHT
140
3.499999940395355
  0
XRECORD
  5
77D
102
{ACAD_REACTORS
330
77B
102
}
330
77B
100
AcDbXrecord
280
     1
 70
     4
 70
     0
 70
     0
 40
1.0
  2
Vebis_K32
  1
Embedded Object
 10
48.48827682435018
 20
-4.990435315248031
 30
0.0
 40
3.499999940395355
 41
0.0
 46
0.0
 71
     1
 72
     5
  1

  7
Notiztext (DIN)
 73
     1
 44
1.0
  0
XRECORD
  5
77C
102
{ACAD_REACTORS
330
77B
102
}
330
77B
100
AcDbXrecord
280
     1
102
ACAD_MATT_HEIGHT
140
3.499999940395355
  0
XRECORD
  5
780
102
{ACAD_REACTORS
330
77E
102
}
330
77E
100
AcDbXrecord
280
     1
 70
     4
 70
     0
 70
     0
 40
1.0
  2
Nuto_H_68
  1
Embedded Object
 10
48.48827682435018
 20
2.009564684751961
 30
0.0
 40
3.499999940395355
 41
0.0
 46
0.0
 71
     1
 72
     5
  1

  7
Notiztext (DIN)
 73
     1
 44
1.0
  0
XRECORD
  5
77F
102
{ACAD_REACTORS
330
77E
102
}
330
77E
100
AcDbXrecord
280
     1
102
ACAD_MATT_HEIGHT
140
3.499999940395355
  0
XRECORD
  5
783
102
{ACAD_REACTORS
330
781
102
}
330
781
100
AcDbXrecord
280
     1
 70
     4
 70
     0
 70
     0
 40
1.0
  2
Univis_HVI_26
  1
Embedded Object
 10
48.48827682435018
 20
9.009564684751971
 30
0.0
 40
3.499999940395355
 41
0.0
 46
0.0
 71
     1
 72
     5
  1

  7
Notiztext (DIN)
 73
     1
 44
1.0
  0
XRECORD
  5
782
102
{ACAD_REACTORS
330
781
102
}
330
781
100
AcDbXrecord
280
     1
102
ACAD_MATT_HEIGHT
140
3.499999940395355
  0
XRECORD
  5
786
102
{ACAD_REACTORS
330
784
102
}
330
784
100
AcDbXrecord
280
     1
 70
     4
 70
     0
 70
     0
 40
1.0
  2
ATF_Suffix
  1
Embedded Object
 10
48.13106219880292
 20
15.65235006913964
 30
0.0
 40
3.499999940395355
 41
0.0
 46
0.0
 71
     1
 72
     5
  1

  7
Notiztext (DIN)
 73
     1
 44
1.0
  0
XRECORD
  5
785
102
{ACAD_REACTORS
330
784
102
}
330
784
100
AcDbXrecord
280
     1
102
ACAD_MATT_HEIGHT
140
3.499999940395355
  0
XRECORD
  5
789
102
{ACAD_REACTORS
330
787
102
}
330
787
100
AcDbXrecord
280
     1
 70
     4
 70
     0
 70
     0
 40
1.0
  2
SHC_224
  1
Embedded Object
 10
48.13106219880292
 20
22.65235006913965
 30
0.0
 40
3.499999940395355
 41
0.0
 46
0.0
 71
     1
 72
     5
  1

  7
Notiztext (DIN)
 73
     1
 44
1.0
  0
XRECORD
  5
788
102
{ACAD_REACTORS
330
787
102
}
330
787
100
AcDbXrecord
280
     1
102
ACAD_MATT_HEIGHT
140
3.499999940395355
  0
XRECORD
  5
78C
102
{ACAD_REACTORS
330
78A
102
}
330
78A
100
AcDbXrecord
280
     1
 70
     4
 70
     0
 70
     0
 40
1.0
  2
Nuto_320
  1
Embedded Object
 10
48.13106219880292
 20
29.65235006913964
 30
0.0
 40
3.499999940395355
 41
0.0
 46
0.0
 71
     1
 72
     5
  1

  7
Notiztext (DIN)
 73
     1
 44
1.0
  0
XRECORD
  5
78B
102
{ACAD_REACTORS
330
78A
102
}
330
78A
100
AcDbXrecord
280
     1
102
ACAD_MATT_HEIGHT
140
3.499999940395355
  0
XRECORD
  5
78F
102
{ACAD_REACTORS
330
78D
102
}
330
78D
100
AcDbXrecord
280
     1
 70
     4
 70
     0
 70
     0
 40
1.0
  2
Puri_46
  1
Embedded Object
 10
47.91408360032305
 20
36.79948984726836
 30
0.0
 40
3.499999940395355
 41
0.0
 46
0.0
 71
     1
 72
     5
  1

  7
Notiztext (DIN)
 73
     1
 44
1.0
  0
XRECORD
  5
78E
102
{ACAD_REACTORS
330
78D
102
}
330
78D
100
AcDbXrecord
280
     1
102
ACAD_MATT_HEIGHT
140
3.499999940395355
  0
XRECORD
  5
792
102
{ACAD_REACTORS
330
790
102
}
330
790
100
AcDbXrecord
280
     1
 70
     4
 70
     0
 70
     0
 40
1.0
  2
Bartran
  1
Embedded Object
 10
48.2448721495855
 20
43.61416957327563
 30
0.0
 40
3.499999940395355
 41
0.0
 46
0.0
 71
     1
 72
     5
  1

  7
Notiztext (DIN)
 73
     1
 44
1.0
  0
XRECORD
  5
791
102
{ACAD_REACTORS
330
790
102
}
330
790
100
AcDbXrecord
280
     1
102
ACAD_MATT_HEIGHT
140
3.499999940395355
  0
XRECORD
  5
795
102
{ACAD_REACTORS
330
793
102
}
330
793
100
AcDbXrecord
280
     1
 70
     4
 70
     0
 70
     0
 40
1.0
  2
HLP_220
  1
Embedded Object
 10
48.41608510706956
 20
50.00231618073705
 30
0.0
 40
3.499999940395355
 41
0.0
 46
0.0
 71
     1
 72
     5
  1

  7
Notiztext (DIN)
 73
     1
 44
1.0
  0
XRECORD
  5
794
102
{ACAD_REACTORS
330
793
102
}
330
793
100
AcDbXrecord
280
     1
102
ACAD_MATT_HEIGHT
140
3.499999940395355
  0
XRECORD
  5
798
102
{ACAD_REACTORS
330
796
102
}
330
796
100
AcDbXrecord
280
     1
 70
     4
 70
     0
 70
     0
 40
1.0
  2
HLP_46
  1
Embedded Object
 10
48.18775408967403
 20
57.46613593326826
 30
0.0
 40
3.499999940395355
 41
0.0
 46
0.0
 71
     1
 72
     5
  1

  7
Notiztext (DIN)
 73
     1
 44
1.0
  0
XRECORD
  5
797
102
{ACAD_REACTORS
330
796
102
}
330
796
100
AcDbXrecord
280
     1
102
ACAD_MATT_HEIGHT
140
3.499999940395355
  0
XRECORD
  5
79B
102
{ACAD_REACTORS
330
799
102
}
330
799
100
AcDbXrecord
280
     1
 70
     4
 70
     0
 70
     0
 40
1.0
  2
SHC_630
  1
Embedded Object
 10
48.28663276922073
 20
64.56859345766908
 30
0.0
 40
3.499999940395355
 41
0.0
 46
0.0
 71
     1
 72
     5
  1

  7
Notiztext (DIN)
 73
     1
 44
1.0
  0
XRECORD
  5
79A
102
{ACAD_REACTORS
330
799
102
}
330
799
100
AcDbXrecord
280
     1
102
ACAD_MATT_HEIGHT
140
3.499999940395355
  0
ACDBDETAILVIEWSTYLE
  5
6B
102
{ACAD_XDICTIONARY
360
74D
102
}
102
{ACAD_REACTORS
330
6A
102
}
330
6A
100
AcDbModelDocViewStyle
 70
     0
  3
Imperial24
290
     0
100
AcDbDetailViewStyle
 70
     0
 71
     0
 90
        3
 71
     1
340
55
 62
   256
 40
0.24
340
0
 62
   256
 40
0.24
300

 40
0.36
280
     3
 71
     2
340
5D
 90
       25
 62
   256
 71
     3
340
55
 62
   256
 40
0.24
 90
        1
 40
0.75
 90
        1
300
%<\AcVar ViewType \f "%tc1">% %<\AcVar ViewDetailId>%\PVARIA %<\AcVar ViewScale \f "%sn">%
 71
     4
340
5D
 90
       25
 62
   256
340
5D
 90
       25
 62
   256
280
     0
  0
LAYOUT
  5
6F
102
{ACAD_REACTORS
330
62
102
}
330
62
100
AcDbPlotSettings
  1

  2

  4

  6

 40
0.0
 41
0.0
 42
0.0
 43
0.0
 44
0.0
 45
0.0
 46
0.0
 47
0.0
 48
0.0
 49
0.0
140
0.0
141
0.0
142
1.0
143
1.0
 70
   688
 72
     0
 73
     0
 74
     5
  7

 75
    16
147
1.0
 76
     0
 77
     2
 78
   300
148
0.0
149
0.0
100
AcDbLayout
  1
Layout1
 70
     1
 71
     1
 10
0.0
 20
0.0
 11
12.0
 21
9.0
 12
0.0
 22
0.0
 32
0.0
 14
0.0
 24
0.0
 34
0.0
 15
0.0
 25
0.0
 35
0.0
146
0.0
 13
0.0
 23
0.0
 33
0.0
 16
1.0
 26
0.0
 36
0.0
 17
0.0
 27
1.0
 37
0.0
 76
     0
330
6C
  0
LAYOUT
  5
77
102
{ACAD_REACTORS
330
62
102
}
330
62
100
AcDbPlotSettings
  1

  2

  4

  6

 40
0.0
 41
0.0
 42
0.0
 43
0.0
 44
0.0
 45
0.0
 46
0.0
 47
0.0
 48
0.0
 49
0.0
140
0.0
141
0.0
142
1.0
143
1.0
 70
   688
 72
     0
 73
     0
 74
     5
  7

 75
    16
147
1.0
 76
     0
 77
     2
 78
   300
148
0.0
149
0.0
100
AcDbLayout
  1
Layout2
 70
     1
 71
     2
 10
0.0
 20
0.0
 11
12.0
 21
9.0
 12
0.0
 22
0.0
 32
0.0
 14
0.0
 24
0.0
 34
0.0
 15
0.0
 25
0.0
 35
0.0
146
0.0
 13
0.0
 23
0.0
 33
0.0
 16
1.0
 26
0.0
 36
0.0
 17
0.0
 27
1.0
 37
0.0
 76
     0
330
74
  0
LAYOUT
  5
73
102
{ACAD_REACTORS
330
62
102
}
330
62
100
AcDbPlotSettings
  1

  2

  4

  6

 40
0.0
 41
0.0
 42
0.0
 43
0.0
 44
0.0
 45
0.0
 46
0.0
 47
0.0
 48
0.0
 49
0.0
140
0.0
141
0.0
142
1.0
143
1.0
 70
  1712
 72
     0
 73
     0
 74
     0
  7

 75
     0
147
1.0
 76
     0
 77
     2
 78
   300
148
0.0
149
0.0
100
AcDbLayout
  1
Model
 70
     1
 71
     0
 10
0.0
 20
0.0
 11
12.0
 21
9.0
 12
0.0
 22
0.0
 32
0.0
 14
0.0
 24
0.0
 34
0.0
 15
0.0
 25
0.0
 35
0.0
146
0.0
 13
0.0
 23
0.0
 33
0.0
 16
1.0
 26
0.0
 36
0.0
 17
0.0
 27
1.0
 37
0.0
 76
     0
330
70
  0
MATERIAL
  5
19
102
{ACAD_XDICTIONARY
360
1A
102
}
102
{ACAD_REACTORS
330
10
102
}
330
10
100
AcDbMaterial
  1
ByBlock
 72
     0
 43
0.0208333333333333
 43
0.0
 43
0.0
 43
0.0
 43
0.0
 43
0.0208333333333333
 43
0.0
 43
0.0
 43
0.0
 43
0.0
 43
1.0
 43
0.0
 43
0.0
 43
0.0
 43
0.0
 43
1.0
 77
     0
 47
0.0208333333333333
 47
0.0
 47
0.0
 47
0.0
 47
0.0
 47
0.0208333333333333
 47
0.0
 47
0.0
 47
0.0
 47
0.0
 47
1.0
 47
0.0
 47
0.0
 47
0.0
 47
0.0
 47
1.0
171
     0
 49
0.0208333333333333
 49
0.0
 49
0.0
 49
0.0
 49
0.0
 49
0.0208333333333333
 49
0.0
 49
0.0
 49
0.0
 49
0.0
 49
1.0
 49
0.0
 49
0.0
 49
0.0
 49
0.0
 49
1.0
175
     0
142
0.0208333333333333
142
0.0
142
0.0
142
0.0
142
0.0
142
0.0208333333333333
142
0.0
142
0.0
142
0.0
142
0.0
142
1.0
142
0.0
142
0.0
142
0.0
142
0.0
142
1.0
179
     0
144
0.0208333333333333
144
0.0
144
0.0
144
0.0
144
0.0
144
0.0208333333333333
144
0.0
144
0.0
144
0.0
144
0.0
144
1.0
144
0.0
144
0.0
144
0.0
144
0.0
144
1.0
147
0.0208333333333333
147
0.0
147
0.0
147
0.0
147
0.0
147
0.0208333333333333
147
0.0
147
0.0
147
0.0
147
0.0
147
1.0
147
0.0
147
0.0
147
0.0
147
0.0
147
1.0
  0
MATERIAL
  5
11
102
{ACAD_XDICTIONARY
360
12
102
}
102
{ACAD_REACTORS
330
10
102
}
330
10
100
AcDbMaterial
  1
ByLayer
 72
     0
 43
0.0208333333333333
 43
0.0
 43
0.0
 43
0.0
 43
0.0
 43
0.0208333333333333
 43
0.0
 43
0.0
 43
0.0
 43
0.0
 43
1.0
 43
0.0
 43
0.0
 43
0.0
 43
0.0
 43
1.0
 77
     0
 47
0.0208333333333333
 47
0.0
 47
0.0
 47
0.0
 47
0.0
 47
0.0208333333333333
 47
0.0
 47
0.0
 47
0.0
 47
0.0
 47
1.0
 47
0.0
 47
0.0
 47
0.0
 47
0.0
 47
1.0
171
     0
 49
0.0208333333333333
 49
0.0
 49
0.0
 49
0.0
 49
0.0
 49
0.0208333333333333
 49
0.0
 49
0.0
 49
0.0
 49
0.0
 49
1.0
 49
0.0
 49
0.0
 49
0.0
 49
0.0
 49
1.0
175
     0
142
0.0208333333333333
142
0.0
142
0.0
142
0.0
142
0.0
142
0.0208333333333333
142
0.0
142
0.0
142
0.0
142
0.0
142
1.0
142
0.0
142
0.0
142
0.0
142
0.0
142
1.0
179
     0
144
0.0208333333333333
144
0.0
144
0.0
144
0.0
144
0.0
144
0.0208333333333333
144
0.0
144
0.0
144
0.0
144
0.0
144
1.0
144
0.0
144
0.0
144
0.0
144
0.0
144
1.0
147
0.0208333333333333
147
0.0
147
0.0
147
0.0
147
0.0
147
0.0208333333333333
147
0.0
147
0.0
147
0.0
147
0.0
147
1.0
147
0.0
147
0.0
147
0.0
147
0.0
147
1.0
  0
MATERIAL
  5
21
102
{ACAD_XDICTIONARY
360
22
102
}
102
{ACAD_REACTORS
330
10
102
}
330
10
100
AcDbMaterial
  1
Global
 72
     0
 43
0.0208333333333333
 43
0.0
 43
0.0
 43
0.0
 43
0.0
 43
0.0208333333333333
 43
0.0
 43
0.0
 43
0.0
 43
0.0
 43
1.0
 43
0.0
 43
0.0
 43
0.0
 43
0.0
 43
1.0
 77
     0
 47
0.0208333333333333
 47
0.0
 47
0.0
 47
0.0
 47
0.0
 47
0.0208333333333333
 47
0.0
 47
0.0
 47
0.0
 47
0.0
 47
1.0
 47
0.0
 47
0.0
 47
0.0
 47
0.0
 47
1.0
171
     0
 49
0.0208333333333333
 49
0.0
 49
0.0
 49
0.0
 49
0.0
 49
0.0208333333333333
 49
0.0
 49
0.0
 49
0.0
 49
0.0
 49
1.0
 49
0.0
 49
0.0
 49
0.0
 49
0.0
 49
1.0
175
     0
142
0.0208333333333333
142
0.0
142
0.0
142
0.0
142
0.0
142
0.0208333333333333
142
0.0
142
0.0
142
0.0
142
0.0
142
1.0
142
0.0
142
0.0
142
0.0
142
0.0
142
1.0
179
     0
144
0.0208333333333333
144
0.0
144
0.0
144
0.0
144
0.0
144
0.0208333333333333
144
0.0
144
0.0
144
0.0
144
0.0
144
1.0
144
0.0
144
0.0
144
0.0
144
0.0
144
1.0
147
0.0208333333333333
147
0.0
147
0.0
147
0.0
147
0.0
147
0.0208333333333333
147
0.0
147
0.0
147
0.0
147
0.0
147
1.0
147
0.0
147
0.0
147
0.0
147
0.0
147
1.0
  0
MLEADERSTYLE
  5
67
102
{ACAD_REACTORS
330
66
102
}
330
66
100
AcDbMLeaderStyle
179
     2
170
     2
171
     1
172
     0
 90
        2
 40
0.0
 41
0.0
173
     1
 91
-1056964608
340
5B
 92
       -2
290
     1
 42
0.09
291
     1
 43
0.36
  3
Standard
 44
0.18
300

342
55
174
     1
178
     6
175
     1
176
     0
 93
-1056964608
 45
0.18
292
     0
297
     0
 46
0.18
 94
-1056964608
 47
1.0
 49
1.0
140
1.0
293
     1
141
0.0
294
     1
177
     0
142
1.0
295
     1
296
     0
143
0.125
271
     0
272
     9
273
     9
298
     1
  0
MLINESTYLE
  5
60
102
{ACAD_REACTORS
330
5F
102
}
330
5F
100
AcDbMlineStyle
  2
STANDARD
 70
     0
  3

 62
   256
 51
90.0
 52
90.0
 71
     2
 49
0.5
 62
   256
  6
BYLAYER
 49
-0.5
 62
   256
  6
BYLAYER
  0
ACDBPLACEHOLDER
  5
F
102
{ACAD_REACTORS
330
E
102
}
330
E
  0
SCALE
  5
43
102
{ACAD_REACTORS
330
42
102
}
330
42
100
AcDbScale
 70
     0
300
1:1
140
1.0
141
1.0
290
     1
  0
SCALE
  5
44
102
{ACAD_REACTORS
330
42
102
}
330
42
100
AcDbScale
 70
     0
300
1/128" = 1'-0"
140
0.0078125
141
12.0
290
     0
  0
SCALE
  5
45
102
{ACAD_REACTORS
330
42
102
}
330
42
100
AcDbScale
 70
     0
300
1/64" = 1'-0"
140
0.015625
141
12.0
290
     0
  0
SCALE
  5
46
102
{ACAD_REACTORS
330
42
102
}
330
42
100
AcDbScale
 70
     0
300
1/32" = 1'-0"
140
0.03125
141
12.0
290
     0
  0
SCALE
  5
47
102
{ACAD_REACTORS
330
42
102
}
330
42
100
AcDbScale
 70
     0
300
1/16" = 1'-0"
140
0.0625
141
12.0
290
     0
  0
SCALE
  5
48
102
{ACAD_REACTORS
330
42
102
}
330
42
100
AcDbScale
 70
     0
300
3/32" = 1'-0"
140
0.09375
141
12.0
290
     0
  0
SCALE
  5
49
102
{ACAD_REACTORS
330
42
102
}
330
42
100
AcDbScale
 70
     0
300
1/8" = 1'-0"
140
0.125
141
12.0
290
     0
  0
SCALE
  5
4A
102
{ACAD_REACTORS
330
42
102
}
330
42
100
AcDbScale
 70
     0
300
3/16" = 1'-0"
140
0.1875
141
12.0
290
     0
  0
SCALE
  5
4B
102
{ACAD_REACTORS
330
42
102
}
330
42
100
AcDbScale
 70
     0
300
1/4" = 1'-0"
140
0.25
141
12.0
290
     0
  0
SCALE
  5
4C
102
{ACAD_REACTORS
330
42
102
}
330
42
100
AcDbScale
 70
     0
300
3/8" = 1'-0"
140
0.375
141
12.0
290
     0
  0
SCALE
  5
4D
102
{ACAD_REACTORS
330
42
102
}
330
42
100
AcDbScale
 70
     0
300
1/2" = 1'-0"
140
0.5
141
12.0
290
     0
  0
SCALE
  5
4E
102
{ACAD_REACTORS
330
42
102
}
330
42
100
AcDbScale
 70
     0
300
3/4" = 1'-0"
140
0.75
141
12.0
290
     0
  0
SCALE
  5
4F
102
{ACAD_REACTORS
330
42
102
}
330
42
100
AcDbScale
 70
     0
300
1" = 1'-0"
140
1.0
141
12.0
290
     0
  0
SCALE
  5
50
102
{ACAD_REACTORS
330
42
102
}
330
42
100
AcDbScale
 70
     0
300
1-1/2" = 1'-0"
140
1.5
141
12.0
290
     0
  0
SCALE
  5
51
102
{ACAD_REACTORS
330
42
102
}
330
42
100
AcDbScale
 70
     0
300
3" = 1'-0"
140
3.0
141
12.0
290
     0
  0
SCALE
  5
52
102
{ACAD_REACTORS
330
42
102
}
330
42
100
AcDbScale
 70
     0
300
6" = 1'-0"
140
6.0
141
12.0
290
     0
  0
SCALE
  5
53
102
{ACAD_REACTORS
330
42
102
}
330
42
100
AcDbScale
 70
     0
300
1'-0" = 1'-0"
140
12.0
141
12.0
290
     0
  0
ACDBSECTIONVIEWSTYLE
  5
69
102
{ACAD_XDICTIONARY
360
74B
102
}
102
{ACAD_REACTORS
330
68
102
}
330
68
100
AcDbModelDocViewStyle
 70
     0
  3
Imperial24
290
     0
100
AcDbSectionViewStyle
 70
     0
 71
     0
 90
       78
 71
     1
340
55
 62
   256
 40
0.24
340
0
340
0
 62
   256
 40
0.24
300
I, O, Q, S, X, Z
 40
0.48
 90
        3
 40
0.18
 90
        1
 71
     2
340
5D
 90
       25
 62
   256
340
5D
 90
       50
 62
   256
 40
0.24
 40
0.0
 40
0.24
 71
     3
340
55
 62
   256
 40
0.24
 90
        1
 40
0.75
 90
        1
300
%<\AcVar ViewType \f "%tc1">% %<\AcVar ViewSectionStartId>%-%<\AcVar ViewSectionEndId>%\PVARIA %<\AcVar ViewScale \f "%sn">%
 71
     4
 62
   256
 62
   257
300
ANSI31
 40
1.0
 90
        0
290
     0
290
     0
 90
        6
 40
0.0
 40
1.570796326794896
 40
0.2617993877991494
 40
1.308996938995747
 40
-0.2617993877991494
 40
1.832595714594046
  0
TABLESTYLE
  5
65
102
{ACAD_XDICTIONARY
360
749
102
}
102
{ACAD_REACTORS
330
64
102
}
330
64
100
AcDbTableStyle
280
     0
  3
Standard
 70
     0
 71
     0
 40
0.06
 41
0.06
280
     0
281
     0
  7
Standard
140
0.18
170
     2
 62
     0
 63
     7
283
     0
 90
      512
 91
        0
  1

274
    -2
284
     1
 64
     0
275
    -2
285
     1
 65
     0
276
    -2
286
     1
 66
     0
277
    -2
287
     1
 67
     0
278
    -2
288
     1
 68
     0
279
    -2
289
     1
 69
     0
  7
Standard
140
0.25
170
     5
 62
     0
 63
     7
283
     0
 90
      512
 91
        0
  1

274
    -2
284
     1
 64
     0
275
    -2
285
     1
 65
     0
276
    -2
286
     1
 66
     0
277
    -2
287
     1
 67
     0
278
    -2
288
     1
 68
     0
279
    -2
289
     1
 69
     0
  7
Standard
140
0.18
170
     5
 62
     0
 63
     7
283
     0
 90
      512
 91
        0
  1

274
    -2
284
     1
 64
     0
275
    -2
285
     1
 65
     0
276
    -2
286
     1
 66
     0
277
    -2
287
     1
 67
     0
278
    -2
288
     1
 68
     0
279
    -2
289
     1
 69
     0
  0
VISUALSTYLE
  5
2F
102
{ACAD_REACTORS
330
29
102
}
330
29
100
AcDbVisualStyle
  2
2dWireframe
 70
     4
177
     3
291
     0
 70
    58
 90
        0
176
     1
 90
        2
176
     1
 90
        0
176
     1
 90
        0
176
     1
 40
0.6
176
     1
 40
30.0
176
     1
 62
     7
420
 16777215
176
     1
 90
        1
176
     1
 90
        4
176
     1
 62
     7
176
     1
 62
   257
176
     1
 90
        1
176
     1
 90
        1
176
     1
 40
1.0
176
     1
 90
        0
176
     1
 62
   257
176
     1
 40
1.0
176
     1
 90
        1
176
     1
 90
        6
176
     1
 90
        2
176
     1
 62
     7
176
     1
 90
        5
176
     1
 90
        0
176
     1
 90
        0
176
     1
290
     0
176
     1
 90
        1
176
     1
 40
0.0
176
     1
 90
        0
176
     1
290
     1
176
     1
290
     1
176
     1
290
     0
176
     1
290
     0
176
     1
290
     0
176
     1
290
     0
176
     1
290
     0
176
     1
290
     0
176
     1
290
     0
176
     1
 90
       50
176
     1
 40
0.0
176
     1
 40
1.0
176
     1
 90
        0
176
     1
 62
    18
420
        0
176
     1
 90
       50
176
     1
 90
        3
176
     1
 62
     5
420
      255
176
     1
290
     0
176
     1
 90
       50
176
     1
 90
       50
176
     1
 90
       50
176
     1
290
     0
176
     1
 90
       50
176
     1
 62
   256
176
     0
 40
1.0
176
     0
 90
        2
176
     1
  1
strokes_ogs.tif
176
     1
290
     0
176
     1
 40
1.0
176
     1
 40
1.0
176
     1
  0
VISUALSTYLE
  5
2E
102
{ACAD_REACTORS
330
29
102
}
330
29
100
AcDbVisualStyle
  2
Basic
 70
     7
177
     3
291
     1
 70
    58
 90
        1
176
     1
 90
        0
176
     1
 90
        1
176
     1
 90
        0
176
     1
 40
0.6
176
     1
 40
30.0
176
     1
 62
     7
420
 16777215
176
     1
 90
        0
176
     1
 90
        4
176
     1
 62
     7
176
     1
 62
   257
176
     1
 90
        1
176
     1
 90
        1
176
     1
 40
1.0
176
     1
 90
        8
176
     1
 62
     7
176
     1
 40
1.0
176
     1
 90
        1
176
     1
 90
        6
176
     1
 90
        2
176
     1
 62
     7
176
     1
 90
        5
176
     1
 90
        0
176
     1
 90
        0
176
     1
290
     0
176
     1
 90
        1
176
     1
 40
0.0
176
     1
 90
        0
176
     1
290
     0
176
     1
290
     1
176
     1
290
     1
176
     1
290
     0
176
     1
290
     0
176
     1
290
     0
176
     1
290
     0
176
     1
290
     0
176
     1
290
     0
176
     1
 90
       50
176
     1
 40
0.0
176
     1
 40
1.0
176
     1
 90
        0
176
     1
 62
    18
420
        0
176
     1
 90
       50
176
     1
 90
        3
176
     1
 62
     5
420
      255
176
     1
290
     0
176
     1
 90
       50
176
     1
 90
       50
176
     1
 90
       50
176
     1
290
     0
176
     1
 90
       50
176
     1
 62
   256
176
     0
 40
1.0
176
     0
 90
        2
176
     1
  1
strokes_ogs.tif
176
     1
290
     0
176
     1
 40
1.0
176
     1
 40
1.0
176
     1
  0
VISUALSTYLE
  5
35
102
{ACAD_REACTORS
330
29
102
}
330
29
100
AcDbVisualStyle
  2
Brighten
 70
    12
177
     3
291
     1
 70
    58
 90
        2
176
     1
 90
        2
176
     1
 90
        0
176
     1
 90
        0
176
     1
 40
0.6
176
     1
 40
30.0
176
     1
 62
     7
420
 16777215
176
     1
 90
        1
176
     1
 90
        4
176
     1
 62
     7
176
     1
 62
   257
176
     1
 90
        1
176
     1
 90
        1
176
     1
 40
1.0
176
     1
 90
        8
176
     1
 62
     7
176
     1
 40
1.0
176
     1
 90
        1
176
     1
 90
        6
176
     1
 90
        2
176
     1
 62
     7
176
     1
 90
        5
176
     1
 90
        0
176
     1
 90
        0
176
     1
290
     0
176
     1
 90
        1
176
     1
 40
50.0
176
     1
 90
        0
176
     1
290
     0
176
     1
290
     1
176
     1
290
     1
176
     1
290
     0
176
     1
290
     0
176
     1
290
     0
176
     1
290
     0
176
     1
290
     0
176
     1
290
     0
176
     1
 90
       50
176
     1
 40
0.0
176
     1
 40
1.0
176
     1
 90
        0
176
     1
 62
    18
420
        0
176
     1
 90
       50
176
     1
 90
        3
176
     1
 62
     5
420
      255
176
     1
290
     0
176
     1
 90
       50
176
     1
 90
       50
176
     1
 90
       50
176
     1
290
     0
176
     1
 90
       50
176
     1
 62
   256
176
     0
 40
1.0
176
     0
 90
        2
176
     1
  1
strokes_ogs.tif
176
     1
290
     0
176
     1
 40
1.0
176
     1
 40
1.0
176
     1
  0
VISUALSTYLE
  5
39
102
{ACAD_REACTORS
330
29
102
}
330
29
100
AcDbVisualStyle
  2
ColorChange
 70
    16
177
     3
291
     1
 70
    58
 90
        2
176
     1
 90
        2
176
     1
 90
        3
176
     1
 90
        0
176
     1
 40
0.6
176
     1
 40
30.0
176
     1
 62
     8
420
  8421504
176
     1
 90
        1
176
     1
 90
        4
176
     1
 62
     7
176
     1
 62
   257
176
     1
 90
        1
176
     1
 90
        1
176
     1
 40
1.0
176
     1
 90
        8
176
     1
 62
     8
420
  8421504
176
     1
 40
1.0
176
     1
 90
        1
176
     1
 90
        6
176
     1
 90
        2
176
     1
 62
     7
176
     1
 90
        5
176
     1
 90
        0
176
     1
 90
        0
176
     1
290
     0
176
     1
 90
        1
176
     1
 40
0.0
176
     1
 90
        0
176
     1
290
     0
176
     1
290
     1
176
     1
290
     1
176
     1
290
     0
176
     1
290
     0
176
     1
290
     0
176
     1
290
     0
176
     1
290
     0
176
     1
290
     0
176
     1
 90
       50
176
     1
 40
0.0
176
     1
 40
1.0
176
     1
 90
        0
176
     1
 62
    18
420
        0
176
     1
 90
       50
176
     1
 90
        3
176
     1
 62
     5
420
      255
176
     1
290
     0
176
     1
 90
       50
176
     1
 90
       50
176
     1
 90
       50
176
     1
290
     0
176
     1
 90
       50
176
     1
 62
   256
176
     0
 40
1.0
176
     0
 90
        2
176
     1
  1
strokes_ogs.tif
176
     1
290
     0
176
     1
 40
1.0
176
     1
 40
1.0
176
     1
  0
VISUALSTYLE
  5
32
102
{ACAD_REACTORS
330
29
102
}
330
29
100
AcDbVisualStyle
  2
Conceptual
 70
     9
177
     3
291
     0
 70
    58
 90
        3
176
     1
 90
        2
176
     1
 90
        0
176
     1
 90
        0
176
     1
 40
0.6
176
     1
 40
30.0
176
     1
 62
     7
420
 16777215
176
     1
 90
        2
176
     1
 90
        2
176
     1
 62
     7
176
     1
 62
   257
176
     1
 90
        1
176
     1
 90
        1
176
     1
 40
179.0
176
     1
 90
        8
176
     1
 62
     7
176
     1
 40
1.0
176
     1
 90
        1
176
     1
 90
        6
176
     1
 90
        2
176
     1
 62
     7
176
     1
 90
        3
176
     1
 90
        0
176
     1
 90
        0
176
     1
290
     0
176
     1
 90
        1
176
     1
 40
0.0
176
     1
 90
        0
176
     1
290
     0
176
     1
290
     1
176
     1
290
     1
176
     1
290
     0
176
     1
290
     0
176
     1
290
     0
176
     1
290
     0
176
     1
290
     0
176
     1
290
     0
176
     1
 90
       50
176
     1
 40
0.0
176
     1
 40
1.0
176
     1
 90
        0
176
     1
 62
    18
420
        0
176
     1
 90
       50
176
     1
 90
        3
176
     1
 62
     5
420
      255
176
     1
290
     0
176
     1
 90
       50
176
     1
 90
       50
176
     1
 90
       50
176
     1
290
     0
176
     1
 90
       50
176
     1
 62
   256
176
     0
 40
1.0
176
     0
 90
        2
176
     1
  1
strokes_ogs.tif
176
     1
290
     0
176
     1
 40
1.0
176
     1
 40
1.0
176
     1
  0
VISUALSTYLE
  5
34
102
{ACAD_REACTORS
330
29
102
}
330
29
100
AcDbVisualStyle
  2
Dim
 70
    11
177
     3
291
     1
 70
    58
 90
        2
176
     1
 90
        2
176
     1
 90
        0
176
     1
 90
        0
176
     1
 40
0.6
176
     1
 40
30.0
176
     1
 62
     7
420
 16777215
176
     1
 90
        1
176
     1
 90
        4
176
     1
 62
     7
176
     1
 62
   257
176
     1
 90
        1
176
     1
 90
        1
176
     1
 40
1.0
176
     1
 90
        8
176
     1
 62
     7
176
     1
 40
1.0
176
     1
 90
        1
176
     1
 90
        6
176
     1
 90
        2
176
     1
 62
     7
176
     1
 90
        5
176
     1
 90
        0
176
     1
 90
        0
176
     1
290
     0
176
     1
 90
        1
176
     1
 40
-50.0
176
     1
 90
        0
176
     1
290
     0
176
     1
290
     1
176
     1
290
     1
176
     1
290
     0
176
     1
290
     0
176
     1
290
     0
176
     1
290
     0
176
     1
290
     0
176
     1
290
     0
176
     1
 90
       50
176
     1
 40
0.0
176
     1
 40
1.0
176
     1
 90
        0
176
     1
 62
    18
420
        0
176
     1
 90
       50
176
     1
 90
        3
176
     1
 62
     5
420
      255
176
     1
290
     0
176
     1
 90
       50
176
     1
 90
       50
176
     1
 90
       50
176
     1
290
     0
176
     1
 90
       50
176
     1
 62
   256
176
     0
 40
1.0
176
     0
 90
        2
176
     1
  1
strokes_ogs.tif
176
     1
290
     0
176
     1
 40
1.0
176
     1
 40
1.0
176
     1
  0
VISUALSTYLE
  5
41
102
{ACAD_REACTORS
330
29
102
}
330
29
100
AcDbVisualStyle
  2
EdgeColorOff
 70
    22
177
     3
291
     1
 70
    58
 90
        2
176
     0
 90
        2
176
     0
 90
        0
176
     0
 90
        0
176
     0
 40
0.6
176
     0
 40
30.0
176
     0
 62
     7
420
 16777215
176
     0
 90
        1
176
     0
 90
        4
176
     0
 62
     7
176
     0
 62
   257
176
     0
 90
        1
176
     0
 90
        1
176
     0
 40
1.0
176
     0
 90
        8
176
     2
 62
     7
176
     0
 40
1.0
176
     0
 90
        1
176
     0
 90
        6
176
     0
 90
        2
176
     0
 62
     7
176
     0
 90
        5
176
     0
 90
        0
176
     0
 90
        0
176
     0
290
     0
176
     0
 90
        1
176
     0
 40
0.0
176
     0
 90
        0
176
     0
290
     0
176
     0
290
     1
176
     0
290
     1
176
     0
290
     0
176
     0
290
     0
176
     0
290
     0
176
     0
290
     0
176
     0
290
     0
176
     0
290
     0
176
     0
 90
       50
176
     0
 40
0.0
176
     0
 40
1.0
176
     0
 90
        0
176
     0
 62
    18
420
        0
176
     0
 90
       50
176
     0
 90
        3
176
     0
 62
     5
420
      255
176
     0
290
     0
176
     0
 90
       50
176
     0
 90
       50
176
     0
 90
       50
176
     0
290
     0
176
     0
 90
       50
176
     0
 62
   256
176
     0
 40
1.0
176
     0
 90
        2
176
     0
  1
strokes_ogs.tif
176
     0
290
     0
176
     0
 40
1.0
176
     0
 40
1.0
176
     0
  0
VISUALSTYLE
  5
38
102
{ACAD_REACTORS
330
29
102
}
330
29
100
AcDbVisualStyle
  2
Facepattern
 70
    15
177
     3
291
     1
 70
    58
 90
        2
176
     1
 90
        2
176
     1
 90
        0
176
     1
 90
        0
176
     1
 40
0.6
176
     1
 40
30.0
176
     1
 62
     7
420
 16777215
176
     1
 90
        1
176
     1
 90
        4
176
     1
 62
     7
176
     1
 62
   257
176
     1
 90
        1
176
     1
 90
        1
176
     1
 40
1.0
176
     1
 90
        8
176
     1
 62
     7
176
     1
 40
1.0
176
     1
 90
        1
176
     1
 90
        6
176
     1
 90
        2
176
     1
 62
     7
176
     1
 90
        5
176
     1
 90
        0
176
     1
 90
        0
176
     1
290
     0
176
     1
 90
        1
176
     1
 40
0.0
176
     1
 90
        0
176
     1
290
     0
176
     1
290
     1
176
     1
290
     1
176
     1
290
     0
176
     1
290
     0
176
     1
290
     0
176
     1
290
     0
176
     1
290
     0
176
     1
290
     0
176
     1
 90
       50
176
     1
 40
0.0
176
     1
 40
1.0
176
     1
 90
        0
176
     1
 62
    18
420
        0
176
     1
 90
       50
176
     1
 90
        3
176
     1
 62
     5
420
      255
176
     1
290
     0
176
     1
 90
       50
176
     1
 90
       50
176
     1
 90
       50
176
     1
290
     0
176
     1
 90
       50
176
     1
 62
   256
176
     0
 40
1.0
176
     0
 90
        2
176
     1
  1
strokes_ogs.tif
176
     1
290
     0
176
     1
 40
1.0
176
     1
 40
1.0
176
     1
  0
VISUALSTYLE
  5
2A
102
{ACAD_REACTORS
330
29
102
}
330
29
100
AcDbVisualStyle
  2
Flat
 70
     0
177
     3
291
     1
 70
    58
 90
        2
176
     1
 90
        1
176
     1
 90
        1
176
     1
 90
        2
176
     1
 40
0.6
176
     1
 40
30.0
176
     1
 62
     7
420
 16777215
176
     1
 90
        0
176
     1
 90
        0
176
     1
 62
     7
176
     1
 62
   257
176
     1
 90
        1
176
     1
 90
        1
176
     1
 40
1.0
176
     1
 90
        8
176
     1
 62
     7
176
     1
 40
1.0
176
     1
 90
        1
176
     1
 90
        6
176
     1
 90
        2
176
     1
 62
     7
176
     1
 90
        5
176
     1
 90
        0
176
     1
 90
        0
176
     1
290
     0
176
     1
 90
       13
176
     1
 40
0.0
176
     1
 90
        0
176
     1
290
     0
176
     1
290
     1
176
     1
290
     1
176
     1
290
     0
176
     1
290
     0
176
     1
290
     0
176
     1
290
     0
176
     1
290
     0
176
     1
290
     0
176
     1
 90
       50
176
     1
 40
0.0
176
     1
 40
1.0
176
     1
 90
        0
176
     1
 62
    18
420
        0
176
     1
 90
       50
176
     1
 90
        3
176
     1
 62
     5
420
      255
176
     1
290
     0
176
     1
 90
       50
176
     1
 90
       50
176
     1
 90
       50
176
     1
290
     0
176
     1
 90
       50
176
     1
 62
   256
176
     0
 40
1.0
176
     0
 90
        2
176
     1
  1
strokes_ogs.tif
176
     1
290
     0
176
     1
 40
1.0
176
     1
 40
1.0
176
     1
  0
VISUALSTYLE
  5
2B
102
{ACAD_REACTORS
330
29
102
}
330
29
100
AcDbVisualStyle
  2
FlatWithEdges
 70
     1
177
     3
291
     1
 70
    58
 90
        2
176
     1
 90
        1
176
     1
 90
        1
176
     1
 90
        2
176
     1
 40
0.6
176
     1
 40
30.0
176
     1
 62
     7
420
 16777215
176
     1
 90
        1
176
     1
 90
        0
176
     1
 62
     7
176
     1
 62
   257
176
     1
 90
        1
176
     1
 90
        1
176
     1
 40
1.0
176
     1
 90
        0
176
     1
 62
   257
176
     1
 40
1.0
176
     1
 90
        1
176
     1
 90
        6
176
     1
 90
        2
176
     1
 62
     7
176
     1
 90
        5
176
     1
 90
        0
176
     1
 90
        0
176
     1
290
     0
176
     1
 90
       13
176
     1
 40
0.0
176
     1
 90
        0
176
     1
290
     0
176
     1
290
     1
176
     1
290
     1
176
     1
290
     0
176
     1
290
     0
176
     1
290
     0
176
     1
290
     0
176
     1
290
     0
176
     1
290
     0
176
     1
 90
       50
176
     1
 40
0.0
176
     1
 40
1.0
176
     1
 90
        0
176
     1
 62
    18
420
        0
176
     1
 90
       50
176
     1
 90
        3
176
     1
 62
     5
420
      255
176
     1
290
     0
176
     1
 90
       50
176
     1
 90
       50
176
     1
 90
       50
176
     1
290
     0
176
     1
 90
       50
176
     1
 62
   256
176
     0
 40
1.0
176
     0
 90
        2
176
     1
  1
strokes_ogs.tif
176
     1
290
     0
176
     1
 40
1.0
176
     1
 40
1.0
176
     1
  0
VISUALSTYLE
  5
2C
102
{ACAD_REACTORS
330
29
102
}
330
29
100
AcDbVisualStyle
  2
Gouraud
 70
     2
177
     3
291
     1
 70
    58
 90
        2
176
     1
 90
        2
176
     1
 90
        1
176
     1
 90
        2
176
     1
 40
0.6
176
     1
 40
30.0
176
     1
 62
     7
420
 16777215
176
     1
 90
        0
176
     1
 90
        0
176
     1
 62
     7
176
     1
 62
   257
176
     1
 90
        1
176
     1
 90
        1
176
     1
 40
1.0
176
     1
 90
        0
176
     1
 62
     7
176
     1
 40
1.0
176
     1
 90
        1
176
     1
 90
        6
176
     1
 90
        2
176
     1
 62
     7
176
     1
 90
        5
176
     1
 90
        0
176
     1
 90
        0
176
     1
290
     0
176
     1
 90
       13
176
     1
 40
0.0
176
     1
 90
        0
176
     1
290
     0
176
     1
290
     1
176
     1
290
     1
176
     1
290
     0
176
     1
290
     0
176
     1
290
     0
176
     1
290
     0
176
     1
290
     0
176
     1
290
     0
176
     1
 90
       50
176
     1
 40
0.0
176
     1
 40
1.0
176
     1
 90
        0
176
     1
 62
    18
420
        0
176
     1
 90
       50
176
     1
 90
        3
176
     1
 62
     5
420
      255
176
     1
290
     0
176
     1
 90
       50
176
     1
 90
       50
176
     1
 90
       50
176
     1
290
     0
176
     1
 90
       50
176
     1
 62
   256
176
     0
 40
1.0
176
     0
 90
        2
176
     1
  1
strokes_ogs.tif
176
     1
290
     0
176
     1
 40
1.0
176
     1
 40
1.0
176
     1
  0
VISUALSTYLE
  5
2D
102
{ACAD_REACTORS
330
29
102
}
330
29
100
AcDbVisualStyle
  2
GouraudWithEdges
 70
     3
177
     3
291
     1
 70
    58
 90
        2
176
     1
 90
        2
176
     1
 90
        1
176
     1
 90
        2
176
     1
 40
0.6
176
     1
 40
30.0
176
     1
 62
     7
420
 16777215
176
     1
 90
        1
176
     1
 90
        0
176
     1
 62
     7
176
     1
 62
   257
176
     1
 90
        1
176
     1
 90
        1
176
     1
 40
1.0
176
     1
 90
        0
176
     1
 62
   257
176
     1
 40
1.0
176
     1
 90
        1
176
     1
 90
        6
176
     1
 90
        2
176
     1
 62
     7
176
     1
 90
        5
176
     1
 90
        0
176
     1
 90
        0
176
     1
290
     0
176
     1
 90
       13
176
     1
 40
0.0
176
     1
 90
        0
176
     1
290
     0
176
     1
290
     1
176
     1
290
     1
176
     1
290
     0
176
     1
290
     0
176
     1
290
     0
176
     1
290
     0
176
     1
290
     0
176
     1
290
     0
176
     1
 90
       50
176
     1
 40
0.0
176
     1
 40
1.0
176
     1
 90
        0
176
     1
 62
    18
420
        0
176
     1
 90
       50
176
     1
 90
        3
176
     1
 62
     5
420
      255
176
     1
290
     0
176
     1
 90
       50
176
     1
 90
       50
176
     1
 90
       50
176
     1
290
     0
176
     1
 90
       50
176
     1
 62
   256
176
     0
 40
1.0
176
     0
 90
        2
176
     1
  1
strokes_ogs.tif
176
     1
290
     0
176
     1
 40
1.0
176
     1
 40
1.0
176
     1
  0
VISUALSTYLE
  5
31
102
{ACAD_REACTORS
330
29
102
}
330
29
100
AcDbVisualStyle
  2
Hidden
 70
     6
177
     3
291
     0
 70
    58
 90
        1
176
     1
 90
        2
176
     1
 90
        2
176
     1
 90
        0
176
     1
 40
0.6
176
     1
 40
30.0
176
     1
 62
     7
420
 16777215
176
     1
 90
        2
176
     1
 90
        2
176
     1
 62
     7
176
     1
 62
   257
176
     1
 90
        2
176
     1
 90
        1
176
     1
 40
40.0
176
     1
 90
        0
176
     1
 62
   257
176
     1
 40
1.0
176
     1
 90
        1
176
     1
 90
        6
176
     1
 90
        2
176
     1
 62
     7
176
     1
 90
        3
176
     1
 90
        0
176
     1
 90
        0
176
     1
290
     0
176
     1
 90
        1
176
     1
 40
0.0
176
     1
 90
        0
176
     1
290
     0
176
     1
290
     1
176
     1
290
     1
176
     1
290
     0
176
     1
290
     0
176
     1
290
     0
176
     1
290
     0
176
     1
290
     0
176
     1
290
     0
176
     1
 90
       50
176
     1
 40
0.0
176
     1
 40
1.0
176
     1
 90
        0
176
     1
 62
    18
420
        0
176
     1
 90
       50
176
     1
 90
        3
176
     1
 62
     5
420
      255
176
     1
290
     0
176
     1
 90
       50
176
     1
 90
       50
176
     1
 90
       50
176
     1
290
     0
176
     1
 90
       50
176
     1
 62
   256
176
     0
 40
1.0
176
     0
 90
        2
176
     1
  1
strokes_ogs.tif
176
     1
290
     0
176
     1
 40
1.0
176
     1
 40
1.0
176
     1
  0
VISUALSTYLE
  5
3F
102
{ACAD_REACTORS
330
29
102
}
330
29
100
AcDbVisualStyle
  2
JitterOff
 70
    20
177
     3
291
     1
 70
    58
 90
        2
176
     0
 90
        2
176
     0
 90
        0
176
     0
 90
        0
176
     0
 40
0.6
176
     0
 40
30.0
176
     0
 62
     7
420
 16777215
176
     0
 90
        1
176
     0
 90
        4
176
     0
 62
     7
176
     0
 62
   257
176
     0
 90
        1
176
     0
 90
        1
176
     0
 40
1.0
176
     0
 90
       10
176
     2
 62
     7
176
     0
 40
1.0
176
     0
 90
        1
176
     0
 90
        6
176
     0
 90
        2
176
     0
 62
     7
176
     0
 90
        5
176
     0
 90
        0
176
     0
 90
        0
176
     0
290
     0
176
     0
 90
        1
176
     0
 40
0.0
176
     0
 90
        0
176
     0
290
     0
176
     0
290
     1
176
     0
290
     1
176
     0
290
     0
176
     0
290
     0
176
     0
290
     0
176
     0
290
     0
176
     0
290
     0
176
     0
290
     0
176
     0
 90
       50
176
     0
 40
0.0
176
     0
 40
1.0
176
     0
 90
        0
176
     0
 62
    18
420
        0
176
     0
 90
       50
176
     0
 90
        3
176
     0
 62
     5
420
      255
176
     0
290
     0
176
     0
 90
       50
176
     0
 90
       50
176
     0
 90
       50
176
     0
290
     0
176
     0
 90
       50
176
     0
 62
   256
176
     0
 40
1.0
176
     0
 90
        2
176
     0
  1
strokes_ogs.tif
176
     0
290
     0
176
     0
 40
1.0
176
     0
 40
1.0
176
     0
  0
VISUALSTYLE
  5
37
102
{ACAD_REACTORS
330
29
102
}
330
29
100
AcDbVisualStyle
  2
Linepattern
 70
    14
177
     3
291
     1
 70
    58
 90
        2
176
     1
 90
        2
176
     1
 90
        0
176
     1
 90
        0
176
     1
 40
0.6
176
     1
 40
30.0
176
     1
 62
     7
420
 16777215
176
     1
 90
        1
176
     1
 90
        4
176
     1
 62
     7
176
     1
 62
   257
176
     1
 90
        7
176
     1
 90
        7
176
     1
 40
1.0
176
     1
 90
        8
176
     1
 62
     7
176
     1
 40
1.0
176
     1
 90
        1
176
     1
 90
        6
176
     1
 90
        2
176
     1
 62
     7
176
     1
 90
        5
176
     1
 90
        0
176
     1
 90
        0
176
     1
290
     0
176
     1
 90
        1
176
     1
 40
0.0
176
     1
 90
        0
176
     1
290
     0
176
     1
290
     1
176
     1
290
     1
176
     1
290
     0
176
     1
290
     0
176
     1
290
     0
176
     1
290
     0
176
     1
290
     0
176
     1
290
     0
176
     1
 90
       50
176
     1
 40
0.0
176
     1
 40
1.0
176
     1
 90
        0
176
     1
 62
    18
420
        0
176
     1
 90
       50
176
     1
 90
        3
176
     1
 62
     5
420
      255
176
     1
290
     0
176
     1
 90
       50
176
     1
 90
       50
176
     1
 90
       50
176
     1
290
     0
176
     1
 90
       50
176
     1
 62
   256
176
     0
 40
1.0
176
     0
 90
        2
176
     1
  1
strokes_ogs.tif
176
     1
290
     0
176
     1
 40
1.0
176
     1
 40
1.0
176
     1
  0
VISUALSTYLE
  5
40
102
{ACAD_REACTORS
330
29
102
}
330
29
100
AcDbVisualStyle
  2
OverhangOff
 70
    21
177
     3
291
     1
 70
    58
 90
        2
176
     0
 90
        2
176
     0
 90
        0
176
     0
 90
        0
176
     0
 40
0.6
176
     0
 40
30.0
176
     0
 62
     7
420
 16777215
176
     0
 90
        1
176
     0
 90
        4
176
     0
 62
     7
176
     0
 62
   257
176
     0
 90
        1
176
     0
 90
        1
176
     0
 40
1.0
176
     0
 90
        9
176
     2
 62
     7
176
     0
 40
1.0
176
     0
 90
        1
176
     0
 90
        6
176
     0
 90
        2
176
     0
 62
     7
176
     0
 90
        5
176
     0
 90
        0
176
     0
 90
        0
176
     0
290
     0
176
     0
 90
        1
176
     0
 40
0.0
176
     0
 90
        0
176
     0
290
     0
176
     0
290
     1
176
     0
290
     1
176
     0
290
     0
176
     0
290
     0
176
     0
290
     0
176
     0
290
     0
176
     0
290
     0
176
     0
290
     0
176
     0
 90
       50
176
     0
 40
0.0
176
     0
 40
1.0
176
     0
 90
        0
176
     0
 62
    18
420
        0
176
     0
 90
       50
176
     0
 90
        3
176
     0
 62
     5
420
      255
176
     0
290
     0
176
     0
 90
       50
176
     0
 90
       50
176
     0
 90
       50
176
     0
290
     0
176
     0
 90
       50
176
     0
 62
   256
176
     0
 40
1.0
176
     0
 90
        2
176
     0
  1
strokes_ogs.tif
176
     0
290
     0
176
     0
 40
1.0
176
     0
 40
1.0
176
     0
  0
VISUALSTYLE
  5
33
102
{ACAD_REACTORS
330
29
102
}
330
29
100
AcDbVisualStyle
  2
Realistic
 70
     8
177
     3
291
     0
 70
    58
 90
        2
176
     1
 90
        3
176
     1
 90
        0
176
     1
 90
        2
176
     1
 40
0.6
176
     1
 40
30.0
176
     1
 62
     7
420
 16777215
176
     1
 90
        0
176
     1
 90
        0
176
     1
 62
     7
176
     1
 62
   257
176
     1
 90
        1
176
     1
 90
        1
176
     1
 40
1.0
176
     1
 90
        8
176
     1
 62
   257
176
     1
 40
1.0
176
     1
 90
        1
176
     1
 90
        6
176
     1
 90
        2
176
     1
 62
     7
176
     1
 90
        3
176
     1
 90
        0
176
     1
 90
        0
176
     1
290
     0
176
     1
 90
       13
176
     1
 40
0.0
176
     1
 90
        0
176
     1
290
     0
176
     1
290
     1
176
     1
290
     1
176
     1
290
     0
176
     1
290
     0
176
     1
290
     0
176
     1
290
     0
176
     1
290
     0
176
     1
290
     0
176
     1
 90
       50
176
     1
 40
0.0
176
     1
 40
1.0
176
     1
 90
        0
176
     1
 62
    18
420
        0
176
     1
 90
       50
176
     1
 90
        3
176
     1
 62
     5
420
      255
176
     1
290
     0
176
     1
 90
       50
176
     1
 90
       50
176
     1
 90
       50
176
     1
290
     0
176
     1
 90
       50
176
     1
 62
   256
176
     0
 40
1.0
176
     0
 90
        2
176
     1
  1
strokes_ogs.tif
176
     1
290
     0
176
     1
 40
1.0
176
     1
 40
1.0
176
     1
  0
VISUALSTYLE
  5
3E
102
{ACAD_REACTORS
330
29
102
}
330
29
100
AcDbVisualStyle
  2
Shaded
 70
    27
177
     3
291
     0
 70
    58
 90
        2
176
     1
 90
        2
176
     1
 90
        1
176
     1
 90
        2
176
     1
 40
0.6
176
     1
 40
30.0
176
     1
 62
     7
420
 16777215
176
     1
 90
        0
176
     1
 90
        4
176
     1
 62
     7
176
     1
 62
   257
176
     1
 90
        1
176
     1
 90
        1
176
     1
 40
1.0
176
     1
 90
        8
176
     1
 62
   257
176
     1
 40
1.0
176
     1
 90
        1
176
     1
 90
        6
176
     1
 90
        2
176
     1
 62
     8
420
  7895160
176
     1
 90
        3
176
     1
 90
        0
176
     1
 90
        0
176
     1
290
     0
176
     1
 90
        5
176
     1
 40
0.0
176
     1
 90
        0
176
     1
290
     0
176
     1
290
     1
176
     1
290
     1
176
     1
290
     0
176
     1
290
     0
176
     1
290
     0
176
     1
290
     0
176
     1
290
     0
176
     1
290
     0
176
     1
 90
       50
176
     1
 40
0.0
176
     1
 40
1.0
176
     1
 90
        0
176
     1
 62
    18
420
        0
176
     1
 90
       50
176
     1
 90
        3
176
     1
 62
     5
420
      255
176
     1
290
     0
176
     1
 90
       50
176
     1
 90
       50
176
     1
 90
       50
176
     1
290
     0
176
     1
 90
       50
176
     1
 62
   256
176
     0
 40
1.0
176
     0
 90
        2
176
     1
  1
strokes_ogs.tif
176
     1
290
     0
176
     1
 40
1.0
176
     1
 40
1.0
176
     1
  0
VISUALSTYLE
  5
3D
102
{ACAD_REACTORS
330
29
102
}
330
29
100
AcDbVisualStyle
  2
Shaded with edges
 70
    26
177
     3
291
     0
 70
    58
 90
        2
176
     1
 90
        2
176
     1
 90
        1
176
     1
 90
        2
176
     1
 40
0.6
176
     1
 40
30.0
176
     1
 62
     7
420
 16777215
176
     1
 90
        1
176
     1
 90
       10
176
     1
 62
     7
176
     1
 62
   257
176
     1
 90
        2
176
     1
 90
        1
176
     1
 40
1.0
176
     1
 90
        8
176
     1
 62
   257
176
     1
 40
1.0
176
     1
 90
        1
176
     1
 90
        6
176
     1
 90
        2
176
     1
 62
     7
176
     1
 90
        3
176
     1
 90
        0
176
     1
 90
        0
176
     1
290
     0
176
     1
 90
        5
176
     1
 40
0.0
176
     1
 90
        0
176
     1
290
     0
176
     1
290
     1
176
     1
290
     1
176
     1
290
     0
176
     1
290
     0
176
     1
290
     0
176
     1
290
     0
176
     1
290
     0
176
     1
290
     0
176
     1
 90
       50
176
     1
 40
0.0
176
     1
 40
1.0
176
     1
 90
        0
176
     1
 62
    18
420
        0
176
     1
 90
       50
176
     1
 90
        3
176
     1
 62
     5
420
      255
176
     1
290
     0
176
     1
 90
       50
176
     1
 90
       50
176
     1
 90
       50
176
     1
290
     0
176
     1
 90
       50
176
     1
 62
   256
176
     0
 40
1.0
176
     0
 90
        2
176
     1
  1
strokes_ogs.tif
176
     1
290
     0
176
     1
 40
1.0
176
     1
 40
1.0
176
     1
  0
VISUALSTYLE
  5
3A
102
{ACAD_REACTORS
330
29
102
}
330
29
100
AcDbVisualStyle
  2
Shades of Gray
 70
    23
177
     3
291
     0
 70
    58
 90
        2
176
     1
 90
        2
176
     1
 90
        3
176
     1
 90
        0
176
     1
 40
0.6
176
     1
 40
30.0
176
     1
 62
     7
420
 16777215
176
     1
 90
        2
176
     1
 90
        2
176
     1
 62
     7
176
     1
 62
     7
176
     1
 90
        1
176
     1
 90
        1
176
     1
 40
40.0
176
     1
 90
        8
176
     1
 62
     7
176
     1
 40
1.0
176
     1
 90
        1
176
     1
 90
        6
176
     1
 90
        2
176
     1
 62
     7
176
     1
 90
        3
176
     1
 90
        0
176
     1
 90
        0
176
     1
290
     0
176
     1
 90
        1
176
     1
 40
0.0
176
     1
 90
        0
176
     1
290
     0
176
     1
290
     1
176
     1
290
     1
176
     1
290
     0
176
     1
290
     0
176
     1
290
     0
176
     1
290
     0
176
     1
290
     0
176
     1
290
     0
176
     1
 90
       50
176
     1
 40
0.0
176
     1
 40
1.0
176
     1
 90
        0
176
     1
 62
    18
420
        0
176
     1
 90
       50
176
     1
 90
        3
176
     1
 62
     5
420
      255
176
     1
290
     0
176
     1
 90
       50
176
     1
 90
       50
176
     1
 90
       50
176
     1
290
     0
176
     1
 90
       50
176
     1
 62
   256
176
     0
 40
1.0
176
     0
 90
        2
176
     1
  1
strokes_ogs.tif
176
     1
290
     0
176
     1
 40
1.0
176
     1
 40
1.0
176
     1
  0
VISUALSTYLE
  5
3B
102
{ACAD_REACTORS
330
29
102
}
330
29
100
AcDbVisualStyle
  2
Sketchy
 70
    24
177
     3
291
     0
 70
    58
 90
        1
176
     1
 90
        2
176
     1
 90
        2
176
     1
 90
        0
176
     1
 40
0.6
176
     1
 40
30.0
176
     1
 62
     7
420
 16777215
176
     1
 90
        2
176
     1
 90
        2
176
     1
 62
     7
176
     1
 62
     7
176
     1
 90
        1
176
     1
 90
        1
176
     1
 40
40.0
176
     1
 90
       11
176
     1
 62
     7
176
     1
 40
1.0
176
     1
 90
        1
176
     1
 90
        6
176
     1
 90
        2
176
     1
 62
     7
176
     1
 90
        6
176
     1
 90
        0
176
     1
 90
        0
176
     1
290
     0
176
     1
 90
        1
176
     1
 40
0.0
176
     1
 90
        0
176
     1
290
     0
176
     1
290
     1
176
     1
290
     1
176
     1
290
     0
176
     1
290
     0
176
     1
290
     0
176
     1
290
     0
176
     1
290
     0
176
     1
290
     0
176
     1
 90
       50
176
     1
 40
0.0
176
     1
 40
1.0
176
     1
 90
        0
176
     1
 62
    18
420
        0
176
     1
 90
       50
176
     1
 90
        3
176
     1
 62
     5
420
      255
176
     1
290
     0
176
     1
 90
       50
176
     1
 90
       50
176
     1
 90
       50
176
     1
290
     0
176
     1
 90
       50
176
     1
 62
   256
176
     0
 40
1.0
176
     0
 90
        2
176
     1
  1
strokes_ogs.tif
176
     1
290
     0
176
     1
 40
1.0
176
     1
 40
1.0
176
     1
  0
VISUALSTYLE
  5
36
102
{ACAD_REACTORS
330
29
102
}
330
29
100
AcDbVisualStyle
  2
Thicken
 70
    13
177
     3
291
     1
 70
    58
 90
        2
176
     1
 90
        2
176
     1
 90
        0
176
     1
 90
        0
176
     1
 40
0.6
176
     1
 40
30.0
176
     1
 62
     7
420
 16777215
176
     1
 90
        1
176
     1
 90
        4
176
     1
 62
     7
176
     1
 62
   257
176
     1
 90
        1
176
     1
 90
        1
176
     1
 40
1.0
176
     1
 90
       12
176
     1
 62
     7
176
     1
 40
1.0
176
     1
 90
        1
176
     1
 90
        6
176
     1
 90
        2
176
     1
 62
     7
176
     1
 90
        5
176
     1
 90
        0
176
     1
 90
        0
176
     1
290
     0
176
     1
 90
        1
176
     1
 40
0.0
176
     1
 90
        0
176
     1
290
     0
176
     1
290
     1
176
     1
290
     1
176
     1
290
     0
176
     1
290
     0
176
     1
290
     0
176
     1
290
     0
176
     1
290
     0
176
     1
290
     0
176
     1
 90
       50
176
     1
 40
0.0
176
     1
 40
1.0
176
     1
 90
        0
176
     1
 62
    18
420
        0
176
     1
 90
       50
176
     1
 90
        3
176
     1
 62
     5
420
      255
176
     1
290
     0
176
     1
 90
       50
176
     1
 90
       50
176
     1
 90
       50
176
     1
290
     0
176
     1
 90
       50
176
     1
 62
   256
176
     0
 40
1.0
176
     0
 90
        2
176
     1
  1
strokes_ogs.tif
176
     1
290
     0
176
     1
 40
1.0
176
     1
 40
1.0
176
     1
  0
VISUALSTYLE
  5
30
102
{ACAD_REACTORS
330
29
102
}
330
29
100
AcDbVisualStyle
  2
Wireframe
 70
     5
177
     3
291
     0
 70
    58
 90
        0
176
     1
 90
        2
176
     1
 90
        0
176
     1
 90
        0
176
     1
 40
0.6
176
     1
 40
30.0
176
     1
 62
     7
420
 16777215
176
     1
 90
        1
176
     1
 90
        4
176
     1
 62
     7
176
     1
 62
   257
176
     1
 90
        1
176
     1
 90
        1
176
     1
 40
1.0
176
     1
 90
        0
176
     1
 62
   257
176
     1
 40
1.0
176
     1
 90
        1
176
     1
 90
        6
176
     1
 90
        2
176
     1
 62
     7
176
     1
 90
        3
176
     1
 90
        0
176
     1
 90
        0
176
     1
290
     0
176
     1
 90
        1
176
     1
 40
0.0
176
     1
 90
        0
176
     1
290
     0
176
     1
290
     1
176
     1
290
     1
176
     1
290
     0
176
     1
290
     0
176
     1
290
     0
176
     1
290
     0
176
     1
290
     0
176
     1
290
     0
176
     1
 90
       50
176
     1
 40
0.0
176
     1
 40
1.0
176
     1
 90
        0
176
     1
 62
    18
420
        0
176
     1
 90
       50
176
     1
 90
        3
176
     1
 62
     5
420
      255
176
     1
290
     0
176
     1
 90
       50
176
     1
 90
       50
176
     1
 90
       50
176
     1
290
     0
176
     1
 90
       50
176
     1
 62
   256
176
     0
 40
1.0
176
     0
 90
        2
176
     1
  1
strokes_ogs.tif
176
     1
290
     0
176
     1
 40
1.0
176
     1
 40
1.0
176
     1
  0
VISUALSTYLE
  5
3C
102
{ACAD_REACTORS
330
29
102
}
330
29
100
AcDbVisualStyle
  2
X-Ray
 70
    25
177
     3
291
     0
 70
    58
 90
        2
176
     1
 90
        2
176
     1
 90
        1
176
     1
 90
        1
176
     1
 40
0.5
176
     1
 40
30.0
176
     1
 62
     7
420
 16777215
176
     1
 90
        1
176
     1
 90
        0
176
     1
 62
     7
176
     1
 62
   257
176
     1
 90
        1
176
     1
 90
        1
176
     1
 40
1.0
176
     1
 90
        8
176
     1
 62
     7
176
     1
 40
1.0
176
     1
 90
        1
176
     1
 90
        6
176
     1
 90
        2
176
     1
 62
     7
176
     1
 90
        3
176
     1
 90
        0
176
     1
 90
        0
176
     1
290
     0
176
     1
 90
       13
176
     1
 40
0.0
176
     1
 90
        0
176
     1
290
     0
176
     1
290
     1
176
     1
290
     1
176
     1
290
     0
176
     1
290
     0
176
     1
290
     0
176
     1
290
     0
176
     1
290
     0
176
     1
290
     0
176
     1
 90
       50
176
     1
 40
0.0
176
     1
 40
1.0
176
     1
 90
        0
176
     1
 62
    18
420
        0
176
     1
 90
       50
176
     1
 90
        3
176
     1
 62
     5
420
      255
176
     1
290
     0
176
     1
 90
       50
176
     1
 90
       50
176
     1
 90
       50
176
     1
290
     0
176
     1
 90
       50
176
     1
 62
   256
176
     0
 40
1.0
176
     0
 90
        2
176
     1
  1
strokes_ogs.tif
176
     1
290
     0
176
     1
 40
1.0
176
     1
 40
1.0
176
     1
  0
DICTIONARYVAR
  5
748
102
{ACAD_REACTORS
330
743
102
}
330
743
100
DictionaryVariables
280
     0
  1
1:1
  0
DICTIONARYVAR
  5
745
102
{ACAD_REACTORS
330
743
102
}
330
743
100
DictionaryVariables
280
     0
  1
STANDARD
  0
DICTIONARYVAR
  5
744
102
{ACAD_REACTORS
330
743
102
}
330
743
100
DictionaryVariables
280
     0
  1
STANDARD
  0
DICTIONARYVAR
  5
746
102
{ACAD_REACTORS
330
743
102
}
330
743
100
DictionaryVariables
280
     0
  1
Imperial24
  0
DICTIONARYVAR
  5
747
102
{ACAD_REACTORS
330
743
102
}
330
743
100
DictionaryVariables
280
     0
  1
Imperial24
  0
DICTIONARY
  5
74D
330
6B
100
AcDbDictionary
280
     1
281
     1
  3
ACAD_XREC_ROUNDTRIP
360
74E
  0
DICTIONARY
  5
1A
330
19
100
AcDbDictionary
280
     1
281
     1
  3
BUMPTILE
360
1C
  3
DIFFUSETILE
360
1B
  3
OPACITYTILE
360
1F
  3
REFLECTIONTILE
360
1E
  3
REFRACTIONTILE
360
20
  3
SPECULARTILE
360
1D
  0
DICTIONARY
  5
12
330
11
100
AcDbDictionary
280
     1
281
     1
  3
BUMPTILE
360
14
  3
DIFFUSETILE
360
13
  3
FBXASSET
360
127
  3
OPACITYTILE
360
17
  3
REFLECTIONTILE
360
16
  3
REFRACTIONTILE
360
18
  3
SPECULARTILE
360
15
  0
DICTIONARY
  5
22
330
21
100
AcDbDictionary
280
     1
281
     1
  3
BUMPTILE
360
24
  3
DIFFUSETILE
360
23
  3
OPACITYTILE
360
27
  3
REFLECTIONTILE
360
26
  3
REFRACTIONTILE
360
28
  3
SPECULARTILE
360
25
  0
DICTIONARY
  5
74B
330
69
100
AcDbDictionary
280
     1
281
     1
  3
ACAD_XREC_ROUNDTRIP
360
74C
  0
DICTIONARY
  5
749
330
65
100
AcDbDictionary
280
     1
281
     1
  3
ACAD_ROUNDTRIP_2008_TABLESTYLE_CELLSTYLEMAP
360
74A
  0
XRECORD
  5
74E
102
{ACAD_REACTORS
330
74D
102
}
330
74D
100
AcDbXrecord
280
     1
102
DISPLAYNAME
  1
Imperial24
102
FLAGS
 90
        0
  0
XRECORD
  5
1C
102
{ACAD_REACTORS
330
1A
102
}
330
1A
100
AcDbXrecord
280
     1
270
     1
271
     1
  0
XRECORD
  5
1B
102
{ACAD_REACTORS
330
1A
102
}
330
1A
100
AcDbXrecord
280
     1
270
     1
271
     1
  0
XRECORD
  5
1F
102
{ACAD_REACTORS
330
1A
102
}
330
1A
100
AcDbXrecord
280
     1
270
     1
271
     1
  0
XRECORD
  5
1E
102
{ACAD_REACTORS
330
1A
102
}
330
1A
100
AcDbXrecord
280
     1
270
     1
271
     1
  0
XRECORD
  5
20
102
{ACAD_REACTORS
330
1A
102
}
330
1A
100
AcDbXrecord
280
     1
270
     1
271
     1
  0
XRECORD
  5
1D
102
{ACAD_REACTORS
330
1A
102
}
330
1A
100
AcDbXrecord
280
     1
270
     1
271
     1
  0
XRECORD
  5
14
102
{ACAD_REACTORS
330
12
102
}
330
12
100
AcDbXrecord
280
     1
270
     1
271
     1
  0
XRECORD
  5
13
102
{ACAD_REACTORS
330
12
102
}
330
12
100
AcDbXrecord
280
     1
270
     1
271
     1
  0
XRECORD
  5
127
102
{ACAD_REACTORS
330
12
102
}
330
12
100
AcDbXrecord
280
     1
 70
     1
 90
1959938040
 71
     1
  1
1051EF71-E9C8-45B4-938F-79B6A7A1100E
311
504B03041400060808006E6877470A4265E7FA000000A80100004F00000032423538413738322D313331362D343037422D423435442D3831433245324534424142452F4173736574446174612F446566696E6974696F6E4974657261746F7250726F706572746965732E62696EBD50B14EC33010352C888181A13B03EB613B
311
B1130709A138B15960291F804C306DA424ADE244A85B47FE1ACE6AF8054E7AE7D33BDFBDA7FB2684FC2C812539431C315FE1FBE4073FB6CD6BB3F5BD2317C8E8C3B33BF8F1164B61795DA58580D43209A2AE12D05C313022CBA495D2D6193FC77F71ACF69F6EEEA6B8F3A50D8DEF3A37F8DD1CAE9158446E7A37A198EBEEE2
311
D02589F98820E4AF11E2A6CDC95274F985701FFBFB4717829F1E68A2A52A7395004F790682E51AB49035285E2526314297DAD0B50FBB796C7CA09C496E6CCEC114950221B580225516F24267655E72CE98A1D3369E66854A73FF3EB8B6A38C2E16DEF6C306F9FF8A5F504B03041400060808006E68774739CB8E74FE000000
311
300200004500000032423538413738322D313331362D343037422D423435442D3831433245324534424142452F4173736574446174612F496E7374616E636550726F706572746965732E62696EEB606060F80F0540260323103700495E20ED9E9A975A94991C9C9C919A9BA802143034303574753337D475B574B6D0353175
311
32D1B534B670D335B774327334773434343070654768046931363471713532B5D435353131D635313332D475727372D13534373670367376B67474B5042A03DBCBA019D37FE8ABC6157B20CD04146B0062181F4C03F940F0C11EA29A8141C08141002C0426541C106CAC2CA046088033B02A030AC2157C6006F21A8018AAF5
311
0194E6010A610250382264E08660284CD9E98021862280A91564B406929A0FF62C401E28B6F88038B83CB1243943D7A928312F25350524C3C0C001C59C486C90183A1FA68E10CD06B48D9B0100504B03041400060808006E68774788E57597CD3F0000904100006B00000032423538413738322D313331362D343037422D42
311
3435442D3831433245324534424142452F5265736F75726365732F31303531454637312D453943382D343542342D393338462D3739423641374131313030452F7468756D626E61696C2F302F67656E657269635F706E67355B773CD4FF1FBF73E71C0E67EF7576C9DEF3EC995D46C6A1EC5046649CBDF79E192942562825CE
311
965D8A868C2842C8DE9FDFD1F7E7F138F7078FCF6B3F5FCFD7EBFDFEC41B196891913091804020321D6D7513FC77D8C5070EC3FFEE51B21F068154CC75D455CC028A3EA68992803810109FDDE5D5CEC5521B28A1B422BF80741695D5B529DA1C2D058AD2388BDA9F476F7C2CADC939304173DBF48A452BF8A700C0C70C3D12
311
1C1AA15A5270C22E2B9E28763651F7DA0D12CE11077B2ECD0D560B5E3DE2368B1E65C5E1C87384A4CC5F2D9FB8BE39E9B77C753783A37998F5CEF1B4FEE553463245C9712270880DF339E0B882A6BA713D865F6F384C842D440934EF264F4A304F8DE4EEFA1E2BF5E2D91F5ADD9613D6E31DDB33ED31DB1D7916CAF091286E
311
A3D31B9CFECB78BB0060245B943C4C040119FF780A74DD308BA9D028678674EB5504ECF284EE814DAED07440BAF649BE4B55DA2890F4D73E2D489A59EE54FDB0A85B59F2F52C4858A02705C4815A792B0C4A996A2023ECB195073E115E3E3647F64243A8338F2000BCB58DA5692C7E7C3D413F963FEDF3CF00FBB0F831A9D5
311
1360FECA43819F527B89FA260EB63C5DA676830AA3626A3693B23F1A17A0DFFCE3EE164E31B5365EDF0C89EF64D8E38AB0BA9A1117D7C3A0EC44F44F4023095E80BA610DE336D0F99593A88BFC5306E72DF98F7FD132ED95878DF2964EA7E43071359FD83B2BDF9C6B5BDF768F0F3C0FC351199526F53D9460A34511F75D1B
311
63E488178569472C91A94497807A3FD4A390C6558F26D416365C3656DE6E769DA9D8FC73774E1709812842DD8EF96AED1960F79D21B395CDDFE6F92CB4EB962A4668C76990E2EF29798C8941D67DA50F4A5F947872460F1F6FDB794E8A29FD7AC0C0D6E0714339CE258FB17AE8535221E3464A10F29A0BE5EEECEFC5675926
311
A89F49EB14E5711894F6586DB5754EB4D5DA9C6437EBA57DB97A24F8B8A8DB295FFD73266CF57E82694DF5166DDF93573AFE9C9C5EB05F8FEF8E89E0A8917B0B3724DB7BEBB53252581EFC3E38166BA131A3A5B42FE2AD00A769BBFA4458D2DE7822F8C4F63D0B8E21B285AE13325F3410A435C648C9D91FDEB109E73CEDA7
311
BC796961AF79175E1A3CE4C5E8B0D009B0C9E29EFD98BC8E97554E3D8D838424E270F7685226E5AC268E021EDE3522D583E8F20C0BDE2959EF5BBFEEDAB32FE9A3ED0E39F211A86AA9DEBFC68182EDED132AB8BB794442D2D7EA9F4D8BFF52BC4D55BB165124EE90A42D101E67BBBB292FFB4F66DE5BF2300E44546757DA7C
311
EF8932BFC9F92A0707953491A55C5A5ACEDABD9FA1AEA01BAC3DC5A24E22E7C47213493996EFBC369D086ED9397C9BA6C7F9855C7BD5E15BFC8C53DB3D2A4C5901A57ACD2FBDF4D1676E95338B2C2BCE65FDA4C64F5FEFDC7D9CA5AA1FCF11E193F2FDABF0F4916BF13FB916A224380E6462A9815F2300DC49CC4DF8D055CE
311
F76462F4B7A7ACA7365C2707891370BC1D0AA6203C44CCAB47084FEC057F27FFCD57F89B8B9852459798A675C66BD7CE572CAF71FF7E6D7ECF7BF62CAB7B3F1107DCD04DC55A3F9961700286141C94A4F771FEB2BCDA2DDEE0CB0BAE402FF1DB0100F8E475DFFFC074DDB4498AB7D186A7654DDB1CB680D703D47CEB4E72F8
311
CB13D86A4AA68116E26387B93FD6738779B34FEDB8E517EDF2BAF28D9BE93A1D3A164320E07D42E514725C29515FF361754213EDE06B079A2E99EB1CA82A02019EADEEB87B9AF005BD04BBCECB14AACD6B24EFBE482194A97DD32400685FF1FEF1544D1B14EFB1E7F08E6D2CD2AF52DE757F35F5E62332EE88EA26417AD5C3
311
E0E319D68F25414E6D672BD4522B278C57D18F0113921C71D96527E091F00CEB15AE23D24667369BD3CEFA10C7549D930890BA4366F4EBC55F01F746109F98ABCDD5A3EE06619C6AD78AB33E48E4C9BD21BF7478B385EC05C4F8987E2C1BFA0A60EBEDAA0AE0B015C2720ECE180FB6F2DEFBEB822D96338C9B63822183BBF5
311
2FB664A7AE57003AABCE512BF77E7E31BDA2E739AC4C131657DDFE5225E900FB56CC01CDE808FA4A9C9DA16AC679656BB64796283D89812B8F91136AE18EE5EBBAF47A73BE3C153EB5D4CD491B4BFB4FE690A4CF9ABA08C0D8AA64220C438C96EA6CA80B58FE5761E697B3A292EB9FBDA502FA863E49FE694ADDFFF9D62C52
311
0BDD1A22014147A0903A05B9B729F54272EF83931FEEC057BFF8C8055C279EAC5C0011804828734024F6CFA319C9CC6867C727184465CD9BB7ED386AFFD96B294A85E3802FAE47244602D8273615952B98C4F23F7EAE4463D9D638EEE374A20959E0FE519C4CFB0FBFE5DD80C2AA3F9DB961D1BDE57E67C9BB47B77FDD74EE
311
3094F5DBBE3EBC1FBDB7393F5116263009E2EFE1AF9A221B2AE234C902BF70E9F280ED23E73908361565964333A3F01D0B006AF32FB21AA1316744B489D5A198E85299241735BE559675130955C902A8ED761FC0DBE337A9F91919AF5CE32AF902ADF9AB2615E00E8A94586BA1A90839B61832FF1BFB76D2EFADE6DB1BA04C
311
CAD3DA649E7E2A0219F592E22F2AD54847EEA8E42271011E9074F8F3DD9FBA6CDF88FFC9FC7E811AD1CA8F4557CE4AFC7BBEDCF0114A48689F20A584520C74DA8127124B767E2FB91A6B186246727BE63C9445BAE02088D58B8EFDC0F1072407CD9B89A13F6303B4A928F593AD489B58E6869325790ADC406036C591729FE1
311
4021F94B7796BB11848D463536A092A26F077F94639F7CEEE2A724C66EC885F4A24F8B8A0AC321F8FD149BA529460FAA34E4663C02D41FDF80BCA222D42F0ABFF8490F4FA74C673807C2051D8E467B47B616072860069A9A303ABA9B319D58404461401B0A0F9BE5E1E151C14BC33B32ABE03DDE91708DFAEB15E7C0D593C8
311
6BB7D7EC17BE56E57975F077BFD5525F3A1A361D584A75E08CF29FC7B44B2B3085014F3A5A14517377C3F6B8F37E59514C3B12F8AACDEDDA4DFC49BE5710101534CD6FB6DE15B50F11A09472AABA727F0C49D9CB906B158030065F48EB3625E010CEC1D511D0053474B11E6A4F01C0D6EF1BED3A944FDEC70E0DDCDC756C86
311
545910E0DAE3BE3AA9A404574C2995CD5CAF9549226BC94B4F4F0F5F9086F418F6B32346464610D8BC7391D3C3A3CCF04CFC1FB2A3A3170E369511868F14EEA4E5E438CC73DB1F3248AA94B6B2FF33B222FF3D1E7BF146CAD229770158063BCE4F5391964DF62F7E52A7BE0EEA829C9E13C4C147D6F93FE59E111DAB5E4594
311
D6F3CD1AD375EE039930EFE5AF2BB2D41C83C7DABD8C659BAFBE8FAB392CA634F3D15C1D945DB4588D2B0824A4EC928AAC565557CA2F0DAA588CA5BE30B3A8004F7BF005E96CBF891D7F18112A3619FDF530DC8AA64954258E1811789B5189B49B4EB53F5F89F7D37523894F3EB57B373763C91E502F52CC99EB7BDDF933FC
311
324C4FFC2561DFFA7339FAFDD0A4BFBE6D3A8FF9ED1FC49898139864602458968913181918F719CCF5A68B2EE9C1FF050E34E63107003B8120FA982C21B30A874E4F5E4B38D5A8290C4B8D9BE48A0BE31EA995BDC37AC6DE90BA17D259DEF53605D55922FEB1855D915B659FBEB350EE0DFB2F9F766E1C84CC8964B75D0866
311
7445EAB966015F63A18A9E0A325C1B3DC628C0D3CB60F767FA93CC65F25458BD23C3B312716E5F40E5858AC06EBA9AB14F95DB99147B832069201541D09A0D856E12C629CF32683760EE855537D1901988D5EBC156676C7DD51D7207CF3267AF1D76C2AD867315E44618015313A98B19941C696FED3461CAA9B5415F918556
311
D7802EDACEFD6B2E45853A9735DFC9DBF7E440F9319F8B6805A973BCCDC76C069A9144E51F187EDCC12FC31B5DEAAF0A76137199B106EC84ADA6B6EE697D4E6A96E007417F4E880E8B1E89B4BCE9D81EF611E2ED8F0C1A6C25F620FAFAAB656A7C42D464880E8AFAB0E0FC8EA38CA9A8AEEAEE3E4648BA4680270A89743CDD
311
3E6C6CBF34B7B640EFA285ABC7EA0A1E28F3CC963D114A80123EE66D0AF7D5380EB41909B605AB4765B709B808590458157E69BA1378FEC4B48CAF6A730E3BE3C5EF2DD1A5EAF94B1DDE50CEB55DDFD7EE9A16747FA4B223359FB1FCC69E1194892BABB93A1D5C4E807AC0EA2E30180811E77A2291F6E7F7FAA5E0F60215BC
311
6024E48DE436C511F0628B8CA189982D4D83CCA17D305A7E923C37941CFDFDCD93ACAF735EF5F0E61BBD3E6C41A59B242790D3A3BAC7064DCD89AA2E37214EC839820949D5CAA31E240D2948E48F690298974A96BA9A8432BC90F5071D6537C9666EA4564796B7AFFFA548077BEEA75F63083435074BA182F3699557397F71
311
548383FDA8CA34D99B981E72835ECDA5DDDC151315173D05A21F651AAF8524E88209E2E7A737ED1045800CE3390050BCFB8BE588DF111617874C62575039CA588EEFDEFEFE319B739DE2EDC147092A262611E159650E787917885EF08F1F51B8F2D8A71D60B58B190FEF9541A1BE94BC19FEA50784DA1419FE4B0FB51B8D36
311
B5FF8E1286FD8AF42B91E59A5F1CC4D60174E764045FD8C57B18209B217F89A62252BD20BE0E63E12B8E8F029FE19E0E8D0870F58721A557082250D5424F7909369376E41666C0EE77CD87CB283F661D5FB6D0DA023CB67320A20DC7BE661E9E1BFE5463085C557DA1FF9BE835733766C3D139F2CF9E2208873AD0EB4814DE
311
9E6BF2CAF81614D4D43906ED1C05A3265CABBFE192770FC2F64F940CB6B17B5F166F133C9AEEAD2641807C3E69515171DD74C4A85311513D6EC9530B3B601B6BA3EBFF3B5C3D2F7D69765141E345F75433953D013ADDF8F6AA7DC3F4A7563FE5C7D367937E2900D7EAD0F9FC9A4A1A9B5BDF1FEF08532660C01C5D6DE22199
311
AA774383E306DAB87E301ABB7D213887F9869D4942D0D71E94B27EDF216A318BD488D45DF84529EF575AF3C3938C0AAA0215B01994153E2054A0B894DA5C784980633AAD48576957CF4AEAEAFADC7C587368551C73DBE1E57C58AC713303A8BFC258BD04B51724459FF9E24C03A81E0E0679CEB9B348C0DC998FEB9C6D6EFA
311
77D247CC8F92D3848599ED89A23218D0636465AD1CEEB7DC140D7426F83491C4E8E8281C2FB35240918FFECE880CA2A42D70E8B20B34DF5221C7DB0CF90ECCB9C745B37A47E9B716FF7A97B7A252C1F3814DC7B1E1A7F72B8751D524EF7CAE45B0C73B3BE7D08ED39781B380DDFC9AA4A4749C9493DB5BAD07A6EA6C092FBD
311
0E85DB004DF06B8C9D3089C5320187E4CE1846158C7EA7DDAE8AD9AFFF21AA3A1026BB06A259845E8232DEE62811A4DA9CEAB3A4887320B76E2AE5615EAB7BDF738CBDD01F1E64064BC13D9EC53576751CA8CACD58B3CEB0E6CA585BD089B2A59B9FC101403387AADBDBE70586B93D64BF3AD4453EF9C3B6A93817E8346991
311
798601344F79A83C51F3D50F7BF2683A3605F51A72449489E0EE6169C749C60B1035651103AEE24D24E51A759C840DD3FC6504DA6FE107510E447B43461C79D22970B75DE5E1BD3007D1AFC619A4A4A69B5626AF5E9B8374E20677F77E2F8E73DF868E8BEC7EBA7B6A75EEF7205E1AB9486CB642741D6E03FF13FCCEDB1C4A
311
C129886268B01CDF4B124AF797CF784F3C6DEC97A17D4B558070A0F1C04DA4FF9BDBF34159AEFE958479824B3F58EBD1E19088A2AFDE501B6F2052368A3FD0E650A179EFAB1561E1D27527077136E652676C3670F42DCB3352F48F6BC86D2C3B0051727E41A0A4DC6CE2BE9D47F5CAA2935A3C0539AF080665997194ABECD7
311
23B08129CC5B6B21D2E7D54CD4D12610E7E9FB8306771A89576C7A982002775ED44F3F744CF21EEBB27A631671D921938AAEE3EB0D19CD1E083727F607823E817BF599DCED5394E37EEBC2E88782E638920CA641EF74D4CDFCDEF06F4278ECB18E31E7E9876F2D783C8BF429C75395F57E98C2B495A3DA077EB3AC3C158608
311
B6B57FE3EA48484D9A480096FCEE0DE880950E7E5A5714131C5C41AAA29FD19AE81AC145FA1B9E85C7169A5AB837B213493DF7E9AA4B5FBF9CDEB36EBD21EF1181B7CF7366AB2A951D01E37AF4EB835D1BE8C117CFBE7625D2EBCDB0B20C5A4B45CED0BCDE3EE8DA9DA78C2E21DEAAFFD1197E463C33CC6A80FB785669B856
311
EFF7A8CCCA2841B5A5369173320B1170C368B2748D81062EA0296E5E2D95D7667A4A46D98A6FF475C76AAB0A8C8D45E226FAFC9FE0133EA9F60111F99CA81ACE03A1D14C89E8B0D69079C91464FA1D99E651D0EAF606F345C42A8A1AA9BA391031582B96D5B4176A77AADB01F12FD298A75DEEBB2C82F0B8650E880722F8DD
311
D90C56A7A058E5FDEF1AC93545BA27367C76F5D8F9690CB6F8DAE141EDD7971F0FB548A2AE435F224D6E5954CA155512F7332029D5A1230854B79F258EC5FFDB09F5F6343A8EB193229B7F7E79B3E48F8E183860B38C8269D1B53738FF1E0BACF6AADA6D4869E9DE708E79B5DADCC09B1BC76F649731CFAF59A83FD8BAE4C7
311
49D66FA87A3810D4D62FFE826FA400C0F325D2BC0F3CA35F5847B82A2ACC7961745C823E4D863D54460AF792CE6F79B5C7A33B25C3AEA6CDE15A919B6367D781E9D44F61BF828672594A3E1D9EDD6DF179A81F27EAC05B936575D73E05C209DDD2115CFB705DF9BBF3C911589B3640735E9E618FC9C36A7326C82B2205E244
311
C55D56FDB9D5DC93CE958D4BF8174D2B3DA54CB3C09F2C2A6DFF73D23B2197355761AD421EC581284A7EF8DE2CE3497C0C804D49B41DFD6A7360844E5BEFFB495CFCDB97A4595911CDBA623274CE852B5E278AF0BEB1770E9D37CD977B2766A7DED0E94B840E1E95E8C77DE5CB6354AF7871427C28ADBEEF7BA0A28E19DE9A
311
CD75F379FE373EAE6DDDAE3834692F9C2B03B4FCA8FCA9ABE8EEEBEBB725B88A7C90941E850682CA04061A7DF0CE82ED49BFAFFD42C309818FAE14755CAAE78B0F73243ECCCAD7DF58FCB9CDFAE7A4D3E6671A613639130D056C8383C8F4FCF4808C331E544DD26E4755D09EA05253B3049A1E32587CC25D72E073E2CD96D0
311
4A71BBCB0038FEC3F53D254199C3CDC67CD66640269431860225392B2CB3ECD0B4498AAE78BA1994246AE1EE78F2EDFB79F6C6CB6B5E279C4D373FBC21CB2698C9ACBBEB6A4BB6B39E16AB0E421CCBFC7654D81ED86022F9BB522146F9F4772E2D0E4FA70120C95A85A417BF5078B232F4754363EB1750B2AC2148EB46B1EA
311
72AD9B4D23ADCBC589D70106C3EC2ABEEED84DFE28E718C6C83502C28E9FDD3B09DA0A6F6F7B72B706A31C9E2A331EE70DA56A083D2177BFD63C55B11D8D949FAFCF90B23A1E24B9B5018B9A17E99F2890EC302F330FE7936E2C23F0D237EC8916F5166AB84B62A21BB0B950146962D754F92CC2C8877BED8FC7B7B25726DD
311
19545392570B3A2C66B58F027BEF412E552D12A588C4A3CC5C3193FCB3485EFFF700D0B9EEC077754A33DC1FB9E25AF814628F91DDFECB667D3F7690803F38D13F8AE39353523BB08FC6760144AFA2CE28236F65EDBB3D5F59A57D612B99E3D7E5F8A851666BF9B5A6658EFC96EEB37A378ABB0EB3FDDF1303AF32C41BD1C8
311
560745D7BD81066B0D6313359CF488563D3BA3F8E2185D1FAA3EBA1397C9D0E3DD232180A4DCADB6AF25DB3AC3CC26589C8239E66E81547BC7E2F328F9884764CA37EB5DBE390DFC03A5246B456A7C3684C4377D0EEF9A350680FA9A077E8B2957B489E09AB1AD41316944C2254B5984830F691C93CAA767EECF976FA56475
311
38830B5E63236A6F0365C1E0F3E327F24FE35EDDBD7360B0F7374837409F7A6311BECC12B7026D4FA1AE204FA3F5FE904B1F420C7A9044AE58E403E7C4848E7DA25DC9EDAC79DD756FAA26B9EA83ACE8A214A2612A22AFA19DAE7DBAC5F8CDE1292A485F98DAC731A29FE01A3966E96BCB9FB5A4C8830E1B9AF0C54B87FBE2
311
21A097036E5D28D1F869F810C06A9BB0AC0612F69AEBAF893C6E7AD59460208BAB3A6B09CA4F6BDDAB8CF0D1F84B72487498395A70DCD754796E271099A567A55CF242BBED64696378BB6CF25EF0FCDB589F3A82F1116D010A9AB9FA4358809EE0C973A2B4229BAA876A70B03AB49CBA7FBE71DB1832FFD32F9BF2C8E98075
311
CACAFB36921235D0F552B6A67E94E094097A5D7DF681B40623DA535ADA7A9AD8E9A62407D7C9A5AE51D62A17A83A23728DE86BB56115804D3F2675F2C6B87541A0FC497BF0CA86420F558C9859EBE9FAD62747E323E3AADC03FDCDDFE7407B09DA90B44E3185723C5381EAEF589765E2F7A099BA46695BAD60CEF3491B8A17
311
1F5F56444F7CE9455312C3498C74173AEA0214EC029833B34B650CBB5A5508D5091665309642791708ECF27CF11DB3D797D6CFE474453BD4BFADB768094B2147814D81C7CBAF8228DCAF5564B5891F5EF6A860EB2E323CB82AB868D8EA048880D63B0DE5341F1B3D53297B928A11E15F25E5148990F710747C3509ED14909C
311
552EBE3973246FCE55D00564D8310BC3EBC5085D08D806799B77D6C57FDF5E55837F9E934F09C03C729271B64F12D0A9F9E938107CAF7BF1EC8CF1BB9B42363D33070F4CACB425E605DDB0A34A12BB936DE286B9887A4E2E558F0886498BFF49C311D96C277CF6A9FC0D75AD0ECC5226D7E0E3572012E56D7FDE4410CEC7A6
311
D0F997F225A2055B8B92E3956E875AE4993CB3D4C9063AF98FD45E1BAB165640A43439A2C9181A7C355B297C0A0CCFFAE19B6FA3C2BA238A885FBC98B8F6DAF4B94B97304878DF4D8BFF6A4AEDF79E90ED4E68F00CD7299F4E0D83E35601AF0CBEF18C1E870E74758FA91F5131075004DB3CFCF09AE1DABC11957FD9808C92
311
E8A678CE9DBE40DDA0E0D1D505AAFBCBA208232BFB6FB3704E8985E61ADE53DE74152F5C7DE74B1DEDCD37DC3E8FB30D7EBA8B9EFFC3606BF90B8D438279CB7709FC7C00D327F41817EEA71CD9E49FE9C8C9A81C70915D9F0F15958EC5AA4C3BBFAF46986B90F188BDB24B89DE3C6F29EC3E6F66D84856EE96A35E657CA41B
311
41EFD8DBFA16AD6E91439EA92B40B21C053249F51AE50EB0B24C770FFAF40DF12C8436366819C48E36547D4E7B72FE2BBF10828583057814A668BDF183F6B2E58DFB151103E56303E63D00F39C27C4661605DB644D19175D02E3F0241E8FC3458D17AAAADB117CE9EEA690D0DB01E634878C04C2C9310B69FCAB831151E3AD
311
293BEF6E46B0ABCECB50F5939B39C613D41E81FAE8D34CAE3C4566B761D37185FE864AC32FCB71AEF39DAA5BAB88609BB980CD2F07A8F941653B529567726E2B2A58D079DD57E1E5E31426CF184A04D7B03B985F276D47406AF276FE32E3328BA866EB1FD39BEF57863A317634AA5FE467409B3873F5069EF0D71AF00AD189
311
D17BA1974ECDB2D623E9E14086386A6AAB5807825C37B015BFE892AFD154920EC437EB945D958E18622E1E0FE2FA06557CE4BB9BBD05A2D40E774DA2B65473791E314B7D6C886820B2FCFE4AA272B3B8B15E7344A145E8AF919B5454D89D36D413E87211186BF6F645E5EC94DCCE8E1C799022E4EC9BC86D7A0F2AFB1FC4B2
311
CE48F84B3F49ECE65BAD24CADCC07EFF39AB06BE9E6B27A059938EA7208838455383DDBCFCD967DDE4650EF92A14FF933C975DB20BD7FEEBC4487576485963D757D16340D9599FEB362F775F38CA4185A86F74B629C81B133644A3B18FD056E997E0734F9BE26D11C0AAFC669E2AC9FC41D281F8B2E1C35AE27BCE05F3DA29
311
5488096688719D974DF1B5D182DB7792288697F8763CFB43562C1CDEE11C4AABD5C22B6E33F6F389CFC3477C5919DC0D533F8A7A1846B7ADB60ABDC26C43D0CFC8910B7C15EE22675BD02702ED39DB77A87A192CA7A543E6205B979B9F5A6B512A3CA799E198B2D5797C0AF8D1D872CA455D4D431A7879D4DD76110B5FF7F4
311
176B54477A9EB5E4A5D11214FDA585F0382751D8E2582BA5D2075053298FEB8F1537304E32CB22C2E2B693DC0A760B1DFCA751BDC445AFDCBB12820ED85F6D5298933C7EF1211E9E057684056CDA3FEF3BB6052355E162DF27C59E965A8DDB7F9437EB72CDDA3A090DE65A5B2F50326247B7EC67B73ACC7047FC9B353D6EE9
311
90F772207C6EC52B39DC2F3C0754821DAB559F7C1809C7D0DD5B0499D0442E0A6E391B3D5DB46D11E731E6794EC77523FBDAA242ED67F9FA1FB684255671F63C9BCFE6E7E896D51001A6113EF2298BA494E0B0980D1FA5B9D60796554C02256B1E0345FB7C6186B6A19D2DCA270416262845FA4F42DB5D9B0A0B6F07FCA2E5
311
6C242522E001E0CEB734AF310FC8BFB57E38E03AACE93B3326A2197891E68452B26A6307FDABFEE0223D3C03C3C73D2D5BC054C8311F12004CAE488E5C29287F8156A2CAA4AD0D7BE6B97264E4139F437CE73ADF52E5134C52B819777C18B323A5924E4F67AFD13B1CDC3A61793A79FAF5C0CEB718E441071E797C6DCCB9EF
311
CF7E4A1E9F3DF3C2F9C9E8294E9586868788C972857FB0556D7A26941A7EEB9B580AD78EC40B85DC906B4120A563CA3B87797ED612D3B035962BB75F6515A393F4CB057F564CDF54F2E5A024514E6A1F901DB80C7E70B1FC05E356A7E72FABF4775B3E3FB8F70A2A8E7B6A94542BB304157978CCC999E707A29CC795E67A59
311
CC546A5D47B368954CA7B6E75EC9E1F6FC73CE3B4F71F8CB1A6B15923D61EAAEB14626AAA9D04A26EB9C66CD1BE86CA31A5D8703DE04CD1EBCE4F5CCB62F93909AD11E55799A781A956ED27D3E738F4538CB04ADABC7DAEF20BC35BA6A90BCC1DC61BA05F20D8832FFB9BC9B15E2DB838A0AFBB7E0C82A562127E0446894F4
311
27794C3037186F622BF24DE1B00AA10A23BFA47B2A180D6DA5AD6F7326FEB8C100C2D7142EB2A0B2A9D1008A09BA343D70E054AB69E2A7EDB783CBD92537FAF4A44D1296AC2792729104B3276C276C951D0CF3CF3F1E6B017720A7B8505A5FF9589365979678C36F1BAF759EAF57C60F1FF5FE9DCF5F8E764FF25A2D06CF25
311
117A8FED51884C13B2B750DB0E4F5E3D64124FCF11F0AD8F1CC3B3DA4B38ED22BF1CB2585EE6BFEBBA63FBFD44F9537B9B37BDD6B358720F98A8125AED4349CCFEB0E135F19E208A04CA7E2B10711185D72E381F448036EF57C9F874E54A971CA37A639E986AC0226DC5AA00D5B14FEA9192234B3DE617814FC221C92F33F1
311
D392F297731B567FD98FD91D989379AF567A65B8ADF177591DB90FBEA99BF4ED11B16E50A0AB1DBF1156D034BBE04D69D08F939D8E92BF525A1DDAFF80ECBC95D8F45D3FDD289FD23F7D8B452F8EBB34EC082DEEE68E18EDDF072060FAD2AB1504DD4879BF67099FC58F6E9DEFBF645D16334A3E9A127C6F1AF6132CF287E4
311
33B43A0EE93812B4AA0B194E03EE3FF91EF9C6ED0074A2F6EB18A96A7C9890B1FCDA1F2095E944DB911ED54C60DF16FB74C8CE9BDC7C54C4F14078CF73C2FFF1F1BBCCD7CF64F71407EA1683DBC410D226627F66E509060D5C0AFD611DE681D509DB8DD12FB1265B03C6F5C55FF4C30BD94187FF692B4F152982502F193098
311
A789526A038AB529A52BC0DC4FB6285CBAC10A8B8DB75DCD9BDABBB221E27D1F8DA9F5EE5926A1C8AA9BA9BC09239C6A7F12914EA3B59EFF7AAEC3FFCCE56F1C5C2980AD072793527565E774F4631DB178CEEC691B1F367BEA0CF2907E1D6B854D527065979DDEF002D8B2ACEA7CE21AE297737EDE1D45B31233B73FEA35BC
311
FDD0B09721FDBAF6432681F2FD10C3E9EFB246FD6E854B344ACC9D8A0EEF876A7314B49B6A499FC650B099D650DBFEC7638ADFD245E2B7839DA5AC5F7D5623FC0ECEEC8653FC9B2BDD1AD4D00A566FBA7186DD3C9CD26512551637498CADB950FEC71ADB9A5524285DE328B8EC7EC75D2345AEC6A27C42AF6D9B92155315C8
311
0DBFCABBB7DA0FAE425C4FB896B15C9BFAC4FE67DF5A23D30C93DA4D8F36FB15D100050DA6062E22AEC5F4DAC4F6FEEF97AE05DE63C6D38F9E068A20BC5E3B6BCD75320C5090924E7F93640A7735B1A43451C2D91EE62C6238B797349E59890AF3A520DF4A87095F3ABEC2E61F0593416CE46CDCBE0E00E2523FCCD0440858
311
8B5B6C9DB6459C786CE378770B54F51DA3A5E1DF2A3349BEAAC234A6CF8993B598B3B25B4B113E353A4D750FA7534749430F3EBF2512E7EA3FD43C6AB9A1F765A58463B306721A15D224FAFE8C6F5E3432D57EE697DA0DD5A9D4866A8BCCAAA9DFF1F06047851408FEC060471D0E3EB86BFAF46E4B5E60311DC3E3CEA147C7
311
5CF971BE74689507154FF2D2E92F15CDB2B9182B11459FD8ACAC5A85F174BC94A7F4EE4C4F5CAFA7C02E37BF0BC77B7DCD0C047BC316F562A01A441AFA7931CC84A28CB9F4AA367EB515778F29BFE61195FA671F4352E5E46E3A64773F1F76EE5EB36D7BCE9BCEAD837A4D77F8DB8C92AEEF6711920D7C7D0F76B0FD0EB7AB
311
83724CD35BCA7D36DDDF5FBB7FF6F04A91F3E2BB3B8F1A43CD659639507FF6331C5F697BCC782AE57D757A27D97F1AB9E0AEDB43F92F1B2AACDF5FEC8ADBAF9F814E2027003BA2F9E144B1938A7A04050AE5D953B82C45619165C813A10E76DD6906B3C16438064D14CDA713AEC420034613E1AC7241904A49FBF87409AFB1
311
FCB9B72FE7933A87D8FBEDACECE4EDCF6A4FE9FB94D5DEB74FAB7CFEAE17EE965DF980DCCA2D04134994F9A2E94D2265DA4FE6AA7B7AC15FACAC2B5ABBCD7DFF542C5314FDAB2E1B9D8B65220B8E2B638BE008E8DCA22678C820C5053664D15E89F2D735B51A84955E81A443545E9FF787BE0FA700A76D136C27DA179A7C6E
311
8939E01BE756E19CB292798063D8B97F44E8A27BCF3A614FEB8BE974A718E86F7EC99B53CA35FA24F61F2B07266684623A3D4CF073E511F3A10A8FDAFAF0078C577F4DF9D339FE7862E5FA47CF4344209E5BF76D783B1B48E152AD281B15FCB934DCDA49CEC5706B1EE8B460F435324A5CAD154725E21AB8044B75A557A79F
311
6C807B9340AA3D92503E866F4274412926C8C504E4D5EF8C0E68DD0B028781A6B4054F11CF18941F101C57CCC796773ABC8DED9CD91FE5788806C05E548895354AEAC96546D55B0E94A59F148D061F42AA398D822CDECA4CDE79E13469BDCC44FDC990F366BA5978C15F97ED80CBFD73B0CD9B8B83A4F6845BDFBFAF034019
311
473FB9A63BD55D3A4A7284757071574029A4D016DCCBE95DD679EF3C4880BF169422F8C89B68A988D2B13793CAED4F74DE7486C72DC94DF46B8E93D8E02EFCB1FF9B3BA10C8AE7F653DF94F4AF466CDDCEF5776687F7C4C14B63E4EED1719DC2EC482D7DBCC7AE518CDE3D5FF86D39000EC3673C0044E1D308BF05F74D1B5F
311
033A7D1BE7F74BC55BBE3E4A20F920946CA0271EB17BD2B80E5660ACB8A29A79F5E4BBA49D4D945B6EEF4A7EFEAA65E5555BBB57A7E15D2F83C69F30BBB978D2B39F1F26FC097424D39BB33CA3D87ABF64E307938B685BAD44F71556A30B7E712CA4FE600613C3E554B69ADE949A7CFE214DF1FFF05CB82151EC6FC3195023
311
9F94CF7AD39DC473F6EA356E5EC2C4EFA04383CEFE985A127484366FBEE3C0EC4FEA363E4F6632AE781392FD45D67B63FB8DF70E82734F431FD3443172A0E30A83D60982D55FA6A2CF86DBA8382502ACC6CDEF3B907982EED1160E14863FA242F9757347E1544275CCDCF71ECD5F8621CBEA326B8BA884AD7F825781923E66
311
971F04010D574C541D8427A438A37EEF8AF88240EED7362C953F5A81DE2D56109CDE2524EA0F5D2F87308C0C47BD97AD605878AB8589E17CA83930CB5E0DCCD75853D68B1AB136594926DE426C367428E9334AFAFF90ECE221BB5DC9E5BB53D2CDEF954EAA9CD814F0E5725F1965DD458E5F8487683AD86B9D0076BE3EE91E
311
B1CECC5331A67A3F79D8B27587C12EC2A6A70474749F27B4C0BBAFB94B34189E88DC18964BE4121B9137FD516C7755356E50D6714E31ACD222621EBBCD1CFF81D87479056A9DA0E0B8EA19D24CF937DA89F78E8650CCBDC110AAB6C4E46DCBFD0446BA9E2060E81F314AC2031E88135E5476AC0160EF5C0DD2EEF1B8B5CB2D
311
198BE9A554A9093B5F7D7E4B5407DDFCA1D9C152FD97F55BFFFDFE802954DFEC8995B983E28AC92F1971E28F531DC407A1280EB125F64A72E617EFB27DFBCEDCDA2D6F2BDADA36873EE46B9BE1782998C63DA7182BC383FB6FD15DA472B175D7E8B4FC88F38D6E07FEAA3FA3CBB8F6B449ECF14D2175E5C5CCA3A42ABF24CA
311
6C9395AF74535F4DDB38CB84F56614B0FD32D7E19CA5CF988DB4449C40E23DF2B16772594554579094450F56F253CD25EA7F77366FB1CFE79696C428BB64D5A41E986189427E5E4D7E2DAE3D5BB4972B3DC44EAABDDDD63A2264ECFA5C786EB0EE1FDC5BE34FA0F08376869FD1E61EA06CAE15191135445EE8F0394161C326
311
6A596AA035572BB0C8876180D8B9C77D307DF9DCDF7365ABDA6F3A2366436457A4DFC1F259666569A9E4A79C817BDD5610E5200FCE894A358EC72858D50EF67545DA81C6FACE3D457BAF70367E1E6BDD9A952FB4F56247F58F523B97E640246051A72F79BE42FFA0B3187F63097F91C48B868586F714B0EBD5A00A8412C123
311
6E1298F60C72BE6C96B82B404CADAA304AE9F303176B14BA53FBC2D5E86377E35542019E24D97B96A49B2C0E5006E7795954DEAF5DA58958839043C6C70BD3B1B33B6DC5C31316D8A6923F142E26F6711A2258AF977DDF1F970ECC4F1F2B434B96D81BEB6E89BF3BBB3C7C8CC80505070723D6D7D7D3C8CA27CA164A26024F
311
ED94B12A86031867241DA53D929636DA600F050BC40CE48B8BA03D69224720DEE2ED2127390BDF5E6EA64527BBD4C4C63FA76BB801FEEC0E61218EC98A8A86CD8313781617877E66692839B9468CF4DB8E50A73986E558E309C0D6F676F921BE02F1185454DC75B111572FF9D27D85EA14C05AD7271225B391C4275659CA4A
311
43759D0BA44639BE4C30A84DB7F67A41399FB95CBF923B1B1672ABC807C1590557FB18D811983FA97F5E609516D62281D38B1281F68FC75528C35E4CD7DF0F7DBB5E5DD69C414EBEA2F4A5B241B996BA77AE6C772E367408C633EA3E438B68563EA8BE7667F3A4C4FDEEA52ABD78A2820F443B7914A15F180018D231E64519
311
C56A12F6CA7C8DAE18F06F6B769DBF92329EF6A5D18FBCE600F36BD8E8198DE5CDAA96181F3A756EBA5501CEE58F497EA4F418A2B82565B9BCC611713C0B708CCA1F398B78C5F7D03B3437CC18F13061F55C7BEDADD5ACB1DB0E36D3CE47FF6EA1A563A57E9649EA5D14D1A50EAA457463381C073777EF1600607BAF6428A7
311
DDC079D47A204EF1E1F1F0589FB054D45E02CE623B3823C317C601E589E22B1E88B448524B86A82828E32345EC18AE17214B42F8C41C6D428016D9BA31DDCB47572561E5A402E5BA4FCE55F78AF7268524AA04130F3A20BA5D1E9F9948EA48FC8F5314FDB35E21898198060034ACE5E3E2BBCA34092518F275190AF65F4586
311
7FF0900AA4B81F25427414C372BF51DC29AA855C5428EE1EEDD6B849AD60F6E73475C2D2523F8A2772C840A478DED18A8C5C91B085F255DC4F54EA7AA8947354FD17ECF8FB3B4A0DE7B483CAF3A1165EE05BBA413E5C1FEF3DE1D6B8F2F3F3251C17D9FCAB48A9AAF63AC773A0E413BBC46A9ADF84A566FC920E4D8C52C976
311
9EE3301CADEEEDD92B312E02E2A7E35B7F1E7D203FE5A7D75578B06E99D0E46FFADB8FDA17ED8880390DA29094202D6F645F76F6F96409CDA05495A96E84B04A00D1A6C6C81D7F3DE9376E828CCF144EE50E364ACCE7237EA0BFB5607ED1AC3CFE73794E5B61739D14DF1743441B1AC98F00ECEDE9E7301FA29755FBEFA68C
311
91EF2B314CF510537EF1ABFC9A762496280B546F5EDAAF8A5B387D469FC9A878A92828C88608453ACEC6094DCA54111E7AD5B2663DFE2DD151B7F123B9F4FEF8EE36AB125FD7AD52A59B1B765B3E3F73E3F73DEA93875004D2AFFE3CDE9493B87A9904DD052028949041A91DC0E1BA47BA714343FD5B25E0A6A09503AFC17C
311
790058A836A324FE31D7893512E28230332F153181C1E018E1124EBE1BA262AA428A518237D1EA7275E48C5C561BD19ED6912EDD8367DA0F31E40EEAE9683DA9257525AEA7B632B97119E17145A90231768A4F3B9120FF32E8319B015E3CBE26F1A754177D8185345817C096B0CE443A955D13AC15E1FB5DEEA0239EC32A3C
311
92241A237B0B02FFCB4F93CF2B02570C8D192E2F2A68CEEB42F12E6F8CEEFF46C251E22B4341C56FB08CCE550E7A9D6F4D6564B9EA52A83D5BF2C6E03FA19D2775E15A8A7ACF30A13C259EE7F5EF2AC3BA354F1500E1A07FC63FB4686E2F12EC69719F9ECF5FE3F35598DF2CE944008CE78F0911BA5BE5D0A34E0098FF0386
311
69C26030BA9B300303039852A8F6F496341737CA7E0D2E3AAA36DE0A70AA7D9CA0D54D9AD84B18A44C9E625475E1C97B93BEBB38DCE7D227E67A2D00F531436136355F243D1FC0D712C5765754FA22FCFFAE97919161F46D6E61ACB37D83777B385889770B50765B127768443A5C4D3A4E35A3151111F146B7CA116F918A04
311
9F1C272F2CD7976C69A0068773451659A97E0F4A08FE604C3FF6CE7385DB19F4D3ABC8A0D80DA8A42096AC377DB49382B36E270B6FA7570188B4B7D1DDDDA82ACA487CCA5D38BD3BD039ADBAFA4ACFF27809239B722081E2EB9F145320553D183F28471C388BC8814E5045676767AB58A8E72D1CED2CA731379515D2E533E4
311
CF0B39DFC625F97AC4836831A4DE330E87A8126FA17EBE583D614E71E22A8DBF2825599743E0640037303E8E1B1E8EA4E1ABFA4F62907B5E4E0E5DCFDAB417C36C6848A2B8D15F1E505434C0707E16B1CFC2A1C36A42BBF55734F8F4301DDC2A5110CEE8C0747F69519265012A2174BF4E955ECD4FDE095A3ABC70536B7AD0
311
B9D7892F81287D667C108703C9B66A221E9A0929D030008F77FF6F5D2108EF5706FC87A3069B976F7C9FC3239D13D283CDEA83597461079FEEE049B0F392889898B7D87D31F8D60ED7B56B91823A8E4EDDB36C6172ECEE42BD42B12CD67994FA0F0DFAE9389356F4CD4425A4B8AA55CBF7ECD585C6A2C2316791E43D5C0684
311
1ADBB226A87FD61515FFBB0167B74E56BD7F3E90A57A97FEDCBDF483A0D6699A8C0849CAEB4947FAA90D8E332D9DEBD9F4738C37DA0CAF9CF3DAA68BCB67C420459C7A64498D6E848E5CADE92BB6901F607AA331104A67F7CD650EE169B1DAE94D2C31C2F993632259B6957E246EFE4C5481107B07118607700040E5812A2A
311
2A38DA0076875258C753F60E0F2662C748EDD5F3F3686B8FC3BD6FE631ECCAA1E8B1C1E565AD117E54893E79F4672E32F9E46B2A183DFDCF3EECB4D4D077DBEA0DA254D256045109670050129E9B9B1A9E4A11344D61497A992778095151510C4BB7EF2009B63AA4360635312E4CF668B7E0D3D85A8688E2BD83B569439892
311
ADB63461930D428E0DE42E4AC57CE48DA5CC1449530D8BD3D6A0F08DF20C8E8F570F2CFFFCEA286E30969B4654D498A58D9DA782E19FE3F002181838925592C4A1EF0B332D88B61A92C644547BED490D3A42CFFAB70E36D961F694F6307F72FF15A1C79D5B1B5CEFD353D9E2B52566DEC8F8F09CB3E8359C0F68EBBB789824
311
3E34E12A015B2685AB303C04D3A9E00671FF3DFF0A184E4A2ABEB2B666AF5B3A209C73D8EF29DCDB069C9F391EEE9DD0F74C7BCDE16F8F02E3B8816122BBEB50665775B600549D8BB33A54A6BF940C028118BC6878C79958D6784F9DEAA6E26748386FFAF8D0D0101E2847B6563F5D8DC1D78F787BE00E2C941AE12148D4A8
311
1599FE8F68D4DA5CDED75530ADE138240300EE13B0FC13A1687FED6774662C05A2B7DFB186732F0D7A93545D8B0A6390AE5054D9CB582DA846D7A061B3358B45E2B52DDE63E114397EDB7E09233A579155D795BE76102CF277F4DF8B188C4F2879BEAE3C08347124BF9ED23B128259FE107D31E34A652F090B30B39E0D9AF9
311
17B76A2806135621A8A60681F16AF216514BBD02711585B5B1AE823F4B2D0369EA5B6BCB863072727FFC871CA6C9AB79A814D989057E9470A3D238BC87CBB4A0EA49AFE2B86F22E499793CAA9047080450166BDC357524561E258C77CB697F1ABB32562CF87C3B7AA12F911EF19FB3E5C02222E887D08202A60A17151F5E05
311
3A86B437771088B4FEE14D652C43E8D939995D34545E12E2FF93D4E366EAD25F10CB7DED141563C3D0C447AF06078A91135FD4B9611583CB4BF3BD167F2399CEAB0E0100F8FFC305F00F1711717173138B4B48C83022295DE657EFEDD97F238ECA80F528AFB4F8D67AD4E2594B9A3AA86D7487EFC313BA95745C186F0CDD84
311
CC12DC9CB0424B42203D351FD9C0A3AF10CC7F388E0329279087386421F194F4A29464C1DEF7EF8BE515E4A199DCD5B909342598D8FE6A231F71336248D5CEC5454455C7BE383B3BC7B260FED27F703FDC39A170F3827239102F59D4DEE7FEF82EAA1A5E4BA94DCC4CC44E7E2EDE20F24244E4454369D2E87C3F823F193FD4
311
FD27E1C23984B01898D15ABC20711A8A558054951A6AE280096BA36CBA439603B7B0B4C45F248C14B2383B4B5CD8ECECE4FF859AD4A6CA2326D020EF090F4041D28DB66E5256B56232CC52829DE8060BAE6BBF37D4B7469B822454FE93210A3E8D15E69FFCF01123222611C51C4FD0A041A0CFA2471CF6BE38D2B20FA4C352
311
5B5B8B586759475CF80ADFE67A284AC24651E52B8E683D24C2622642F27E7C3C22783BCF63648BC398BD6CD0D9C97E7E7E3EACB6126DB7A6C1FD9F1031302EE67ED96F22B77C7CA0239BB324207559B105E4693EB26EC46182A92C9C0DBD24F29B31C5C5AC1F84300E0E17CEEAC15F5736FA4A98971E2F1423BFCD68D4BBD5
311
F86E74B40A369F39507C88FCDB35D2DD8DEBEA4AF999E23CF2816D204200DF6E611781B9884C1AC8888B4DE397320472959434323A5A36B22A8E1F721A270DF3BD65E4A31C11FF048AFB0D8B7B6881423793963A23CFCE935FC189ED36FAE35C46DA3574C979E4394BE52084F3081837BE033396D2EBD80F1F691B273F660D
311
2B32FA27A33B1DE4ADA5F0FA4651511102DFA410DDA86E065272CA314D5249DF91B06BB92807B28EFD54F08F7B525252782CD276DD02E6B0319B13DF87B1F6361AD6B28FC0D711CF445429B9E5A433CD493051C49A9E03DDB1B147D880253514A5DED88009018620EE229101C041950E2D8AA8E1F5F5438E0C0C0C60EEDEE9
311
E3E0C051948C69F84BB7B2A48A1F3C8EB9E6864687F4F4F6F6E2FA87608ADAF9C5E117B7C1A737E710769DA1D15ECE6A84502AA855398712D5FB51BE92E4EF824969CE18278798AC303C2C7980DD2500ADF8FB1E6D6C2FAAFF9987178923334A244758BAA01A9A1B70FA5097D01E1CC2A58DAD0EC94CE6430AA9B0C10D75E3
311
C6BAC670EFBADEE1607739CE0FC18A2587E3EC3058562014C64219C69BC269082D5C2F4A659278D585755912176D78A1B641719C2A394CED495A1AC5D583FD2F5EDD93308EA7EAE8A6DD396598BDBD3D4CFED62D18A5BDFDE0DD5C80D1A89BA62697B131AE7CE9A6594138582F1B37D68F1749AC7CB67A70695D48A4A056AC
311
1FBD4E82358CEAE38F54B95A9016F9000F9879C0D9D131768635CA798895F27D6F1614F11F2838A83611AA51C9A3DDB539D42979C29F10465655C17BEC3E2760B80DCBF609198C7B171A531905F3EC218D696025975E986C6B4C666666787271F202805577DD5A3EF0CAFAF91B62DC4B2DB4217A7606282F31D8DDBC290593
311
BAA93EA6353AFA9939B877978481E15CFC9F2755CDC00C538F63A4BA3E80AE009B73CA0185687D339A507D165B74290D6EE46D5C58148F020C3668ABE9EF2F7549170DC80DB41FFC1D678FF19AEB10C7133832B104B80F691B3138F97A92D26E551F1F110400D45AC71A9B9AC41A1A1B1DAEED0B0810638EFFB511D46B121C
311
6FEA0F38CD00E03CFFEB9713FE1F9C263E4DDEC160D0497FA9A132BA608584057FB15380825DE6C7FC3C667EE947D488A09898D8E939C4953BF4EC9836344D2CC6B2971B2A21A572B06096F4982D2CC7232D46E8EA69DC83722E267754D777F97F96D5DA74E1E75178084D0E70F12AD33E5F71EF2AFA599B2BEBF60A5BE475
311
F444F240CBFE8143C334E7ED9150FEEFEF7EB020C4DBED388DD1D6A167A76F3CBF119B578AE8CFA7736ACAFA4440A1C47185638A0D2F3EB5BDDEFDA958FB13CE4AA4923D5BF840392D45544329525749734866684BF7F8D9D54D892E19BCA9F829A0F8BFCBEEA6CFDFC61D74EA1A645ED7A1FF241739F15694BD835B66FEC5
311
677E40FE69BD3F91AE402F036537218A401CB0828604AD189E575015C6F3F6BBC8AC79CF6C70653847254B31551EFCBEB5978B9DB85D58D0FA41A9DFE9C624834AA04949D24B5AE6D299E072D152D12097920F14AA92C31C3B97E28B6C2E6E9C23D63043ECBBC0A60FDF5BD0C33C127EA8A3308B8B6AFFEB28B4455BF6E7AF
311
4FC6222728357EB8E46E85053E6A8843AB23295BF838ABDA94658FEF3F832F147046B4ACD6F7D48E8FCC9618582961C898D1C7A253C91BFECBDA6BA18A1FCF70755DCCEE2222F41B76D23CA98D0CB3D95F0CF66D57FFF65E2A90F5DF40FC3187621E981BD0BC1D992787212688976B94A8F0C6EF646624B570B78E068826F8
311
7CE27041A95C9A4871FF65CC17FCB1639629AD6A9517000D63AC231F3D741CB8430777E7ECF80CE7A3F73C0F162F7E56AA71F4DA80A33CD6ACEE78E2C11FAC03DAFCE929B106F8F6B3ED2DC71FF994BD9CEF4E9A94896EF1B6E2B7B4978168BCF0847A3D2A4F1B0500B926E634B174548E9FBAD27153FB5FC36799B1E6C7C3
311
8A94E1F9E996796D7B485E635D5287A2AE76FBD11A341DB3F8F810385BB7296391973DC6C37C452A9305AEBBE0CDB6C566DB59FE60C8E94B1FD090354BF51439FFD1B48D725228FFA88C84F686F547107A7A235665A4593B7C34D748C1AC8D56DD5DA861EEFBADDECBBD65117E65851F90351AEB65F0EFCFF4BCFEF24CB7A5
311
879699FAC437A7AF9099186CF006BB923A59E37D7A36A29FD8D2CBB914A5E9D0A8FD212FBF796AE9A67958FF1D5D8B85F78F96219D4714EB919929241B6C018AAE0C02069F8D919961EC5DDFBFB7573E3AC8E08BFB7C8534BE6DE045B3CD63DBD71F7638BA2309CAE398EA3A7D8F98BBBC7AEB367EFA5CFA27A9F8F2F52FE8
311
78058E6209C026453F8E7E8A237DFC389E9590F6059B397CFD65183BBF936E86896612A5B5FEE49DAC8455D026218AFEBEC12B3523A45B57B82C9C97E02ACFA1184DB18E48CF615DBF39C3CC6F0B4AE6BBEEA2E39D944E290302FA3DE33FA7E40296E2EF7BF1CD855BBECFAD0FD622BEE9746FC4FDFDE545AE6E3BC234CADF
311
83A0FB76DFB145BF3828AE3436368AC24989454F8FF70A177672C711CAA1A76107218CF948CA01F873520E7A2B118EBB161ABAD432932029628B6761590C98AB590C8C8C79798CE9F715BA696E839E9131A4BB68BE923F1747FBFF165331FFDD4D05997ACD168F12CA75348DAC04C7F509FE83898A8B421181AF492861CE81
311
E4A2DD0A30850CFA95E05F097FF70F9E777310D584A75BA7018922E271DAB1D785671157685B7D383D3E074DDB4F1E44EF04B07BAAC75A062077C54B9752C738C9D804D402E02851F3F89605AF189738C18C021D2139EAF72513824E10DDD3047BACC8521ED7E98B257D1166903B1B08FA6F918FD7E162913FEC7D0EF4787E
311
29C35FBA8C6E2C9C20E9AB30AE42CA2A01A090E7D010C1B5BF9CEE2A304BF3A987FB40D836979B79E18D70F257DA61E808472DD85B82761825779D6B90CAEB0F23360C6F80A7D7D77545E95B3DFF0CF96A827F9B5BCECD2C9698718417EF80FEEDEE938AFF55859D0D540B7FE09435583A6F04874A0C7E8CF234DF48797220
311
00167F5872CEC6BF3EF7E5A8CC8121E6A359227C8A29C95212F9F735BC72A887D56B8F309FC525BFB4FD767AAEC4AEFF249CFBBD2DE1AB9969A6155C7D8DABC307E47324C1F916C7BCFF40ABA5644E9FFB9238D19ADADA49D9610F01ABBA57E4DFCBDCCBB2B93C8953206C91DE01B0E2651A6D6C31721915B31F7B7CBCE554
311
66F6D70402788FA91D73BE4ADCBA99A35F17D6B83383704917D6833F0FA3CD45C926ADB8BC17999A4A0AFBCE2541F7B8CF4C2F5FBA611B3E626D64407CB32C122DFF4EF8674D6EDBB86C8F7C6A16D50FA685E2CCA34F8F7D1D8265BB0042E9D7F1F666F7BE5FAA5184DF58E12122A42EF02F461B3F369AC746F96528AD2085
311
12AB56844CF75B97F352DF7995024FB02855385854F3798670D01CAC771AC3E1889EC25F61A20C1F8CAB46898817F9C47E2CDA1F286BF2F358298709FE567C91133E2638C8B53975E753EA8BFD3578B5F7186B7BF084EBA3F77BAC3132A5779902EC22AF2D2E79F42D324E083386DAEE9810D1B44A5DAA54513C7A71E52A4A
311
B9257D975B621308FE4D2141CC3DCFE946C154A3C1DFCCA7629EC69ACFA831634ADDA93C0388D2A9A2DDAFCF957C6995BCE7FBB6DC4EBAE79E63EB08E9A25F52F67076F7093CA545CA3053B5BF576DEAD4E0017143C5F759F32B2D6F145B52B67B48909B7C7FCA6586EE385A2189C16932CB6DDFD9152AE317C430492A578E
311
D27B72D85D40C7C93C097939E1B50F4D67F05334FE9DC362C30B7FF561B95259138ECFD9274C8D695C31B14D4EAA9F3D7FA8DDF652F8C5DEFA23284C799B7D94416DEE81E05A866302DC70192A5368EA65E1CED8BF107A1E2D3119A71E85DC1A7B0C1E93274CE04DD0F2ABC8AC7C987FDB002B6F81757B43502EF7A0D92E41
311
6494FAEEA4C9C090CD9557AA4D532F4996A272B94355C5A0E4974EEA9627476F30809B94D8D8D860062E02204643BEC7D0438AF800FC7E2B26955D595421E83C69E1A07E0E3122285835F014AD538188CF9737CE76D464A353FA55A001AB2526B84E985083693BC76FE211CA1D000679C889E3C009832C87E1AC2EDD05C302
311
557422DF0800E316FCAC86978A371F025A6C7DAA9F333E7BD160403A1A06EA75AA9888FF01504B03041400060808006E68774728BB58AF800100009E0500003D00000032423538413738322D313331362D343037422D423435442D3831433245324534424142452F536368656D61732F436F6D6D6F6E536368656D612E786D
311
6CBD544D4FC23018BEFB2B96DE15493C78601010A34B880709DEDFB52FD0D8B54BD70DF6EFED3AC0B12E6442E2716BFB3CEFF3D18E26FB440405EA8C2B1992E1C323095052C5B8DC842437EBFB673219DF8DA659866649B798C078B48AE6410122242F2A4994AC7F93815DF85C049C8564CA0A901499DD886B2EB9B1E02448
311
F358701A9235880C49A0119892A20C89D1B9FD768815CAD268CB5E0355B40B1E47F3E37A2020464BED06AA57CE8FCC20C3C3446D46761A2632A8C1283D07031EFF2AE7CCB1BFEEE916E406DFAC8E36FFD99A9D60A6944090EEDC3B670C7DC13DE86B6B2C5C240D6E503BB85ACD579D513F1B9F9A69DC9CC22AFA80C426D40A
311
F0B21EA168559156B6276F0F726A6BFF04DCD513A87A62CAD41FB24FCB2858B3952E3D852084DA25B9303C15687973CC8E8AAE11DF2836C38C6A9E765E8C1BA1BFB1DC29CDFE518C8B5A7655A4ED7E77291ABEB80DBD82EC866ADE1B8D05AF9E35CF09D7A061F38A986D9EC412B8F0F65E5D81534D9B231D1E5A8FE577A241
311
F3A5FD01504B03041400060808006E6877472CCEBD668A040000E01200003E00000032423538413738322D313331362D343037422D423435442D3831433245324534424142452F536368656D61732F47656E65726963536368656D612E786D6CD5586D6FDB380CFE7EBF42F0F7A649B70E1B90744856B4970F450FCD7A5F05
311
459613EDE4174872DADCAF3F522F8ED3B88D2F1D06AC4050DBA2493EE4438AF2F8EB73AEC8466823CB62928C06C384888297A92C5693A4B6D9D9E7E4EBD51FE3A931C22EF85AE4EC6AFC38BF261BA626C9AD288496DC3F4FCEAFC63366845F7A10452AF41DB320C0D44EC26EAB20918735565582695670811A6A49643A49A6
311
E9069FA4604A64B29016DC4B48552F95E4932463CA888468C1D2B250DB4962750DF7CE273069CE8363F1FF4EDB00E0A21999574AE4A2B00C353B93F3BD4777B8A61ED8F604ABFEDD79CE56A2B7BDFBDBC50996E0ADDE16FED26223C5D30956C29BDF4A55EA686E5E58B112DA45CE67F76F4FA27EFA3FB672FD7372FC388FAE
311
CDCA5209E693CAD167BADCD272F943701B3812F8A3D852008B1D2E32DB927B2F833C6EA95879925356D254582695095A3CE982924720BE5774A3CB9CDCDB350427D2DF20DA1B5532EBE2D5D6288D75D4F7E4FD9890A0EF8E3D93EBB8F8BA4758158EF6FB90A6F9520281C93DE7AAC6D24607DA296BB96018123F821A7D6A5C
311
5884050C475DA4865442732C8B95684A50165CBB3A32F25F783A4A480ED59AD7F924B968AEA50131F46303223E6A397B0E52976030DC1DCA81D7E7C1EDEEA42C19FF27635C505E2BD5198A599020DF50A2330FCB3AAF28CB0124108429553EF1B228802E2265D8F7CC2401042B155BCC7070F1E5C55F13B4A9577362CCCE46
311
C32174E010C3C378C44841A4BDA00FE3A12006CE11EE6AEC59894D3526DDE1CD59D503ECC324017F8061B7F162162FA62EDD81AE3308617770796DCBDAD2B2625C5AE8A63DE20B2C8AA5E95E76E5730823955956E33E705425A2187C185D36489A1B44D3DCEC2172F6BA2105C3546287A7194B2331768EBBE64F6E70A9930A
311
BE0ADEA89E9E2C38523B810287AD67A54A039C1606EAFE68F8304610BB9093DBDDABC0B2AE4E290DCDA15376D7E39F72B556F0B32EAB5D3D498B4C41ABADEC3A1434C422D87E8025A84BDCB2B1417ED750FAE4DA8976863974C577C7F902D3F156AD354DEA3540DE6BEAE2BEA52F7A2EB4CA43802ECE5BF2CE2EDC9347179F
311
FB023CE412E60BE16DA0BE29B374988A553F561DC04615DD35F7D2C8979F60E5955CE93DF29DED8AFA1EE6642D53418086C03C47C377910F75F7E8F5EF665F70B60FFB22AEDF897D119E8423C773E819A3C1E55E550599EE6EDCA34D0C86FD72057DF2CD46F16A470682471C164E4346D5306BF12D7D12D82CFF673D41636C
311
347443FEB51B50D72EA171A8E4A58623A4A16E0FA2B8B10A0D23268D87C33896EE8FB73305A74BF224EDBADFA0BD674AB354D63DB7BD5D83426761C077DE767728235446A552754EB93B755891C3C4CC6CADE37CF0E912A7BB38DBA010F9DE1282EDF470CA69A9CDA482E334C4A6EA4107987980B17E72F31730EBF88BBD39
311
E7C629F56797A3C0009C2C5AE7951D9A05A02773440F02EEB4DE396A3B6A570C72CCFBCD823B0B8ED3F1D5CEDDFED772FA70236C83FB7D86C385D570B87107535572A60A96035F8F7C6A7192F13007246BBE0521855E6AC46F3E27689CEE7D186A6FD679D98CDCAD13333E04EBE7ED6F55FF01504B03041400060808006E68
311
77476180134D5F0100006B0300004500000032423538413738322D313331362D343037422D423435442D3831433245324534424142452F536368656D61732F52656E6465724D6174657269616C536368656D612E786D6CA5934D6FC2300C86EFFB1551EEE343DBA41D1A103009551ADAD40EAE28A4A68D9426284961FCFBE5
311
A340113B2071746D3F765EBF4DC6BFB5407BD0862B49F0B037C0082453059725C18DDD3EBFE3F1E829991803366715D474942CD30FB4A782E00C64017A412D684E454CE3FE28995203B162A6EA5AC94B66997D225E109CD63B0135484BAD1B3C07E9080CA35DB3119C11BCA5C200461A68A1A438126C75E3E230D40FF81FB3
311
F03C91D1E3A3A0AF79FE28E25BC39EC3E17E4C2A2D94A0833A51AF55BCCA7D88572FCBAC529C4140B020FC3AAFA886621DCED7EAD7664CC86024E806DC297DA1BB393E4156543457A4537DB8817349A70F8ACBF09B3EEE2CB2F33E91B65D60786E4E3B39B77E3FEEEF5650424525DA657FB8B46BE6BF064646F0A0F7327C0B
311
C1BC1B4CBBC1C419FA3CCB23500007872A2580CAAE5461865565294E4EDB4617B62FF579DF9A5B2F54E834076A597573A020912FED777F9B3F504B03041400060808006E687747306552A151000000570000004700000032423538413738322D313331362D343037422D423435442D3831433245324534424142452F417373
311
6574446174612F41737365745461626C654F66436F6E74656E74732E62696E536160603034303574753337D475B574B6D035317532D1B534B670D335B7743273347734343430701502AACB4D2C492DCA4CCC492C28484D2C4ACC4B4E050A82012F90744FCD03CA26072767A4E6260200504B03041400060808006E687747F8
311
65834058000000680000004500000032423538413738322D313331362D343037422D423435442D3831433245324534424142452F4173736574446174612F53747265616D56657273696F6E5461626C652E696E66558CBD0A80300C06F73E4B117FB66E451741D041DC5BF98480A492E4FDD18EAEC7DD4555D89EF28DF51A0B
311
1BD8340C4DE7DD848B988C0ACF0649566493F2408C508DDEBB99D5129FF8F1AF8CF5B9503E20FAE5A16B5AF702504B03041400060808006E6877476F6C32A037010000A20400003600000032423538413738322D313331362D343037422D423435442D3831433245324534424142452F4173736574446174612F636E782E78
311
6D6CCD94314FC3301085FF4A64893176920A092AC71582A51348540C6C57E7D25A75ECC8BE20F8F7D86D0650115387AEA7EFEE9E9FFC4EAE3E075B7C6088C6BB96D5BC62053AED3BE3762D9BA82FEF58B15232784F3F30563818B065B9CC94DC053F8D73A9C31E269BABD6B8C35C7C881169035B8BCFFDA377848E222BB485
311
185B16F51E07E03091EF301E780704BCE601A39F82C63489CC80F3241D10083BA69AAABE2DEBBA6C169B7AB1AC16CBE6FE5D8A4C2AB9F5DECEBC49CB821F6F9A4A9FF6325549910125A760662ABF86A9BF54F2AD71522452C94821B93277D0D7983A601CADD140C93CE1352195094218A438C14A8AECC22F2F9EB037CEE496
311
759206E4C34B1288810C5EA127FFA9BDBC376B17099CC66B76E45CE3E57D783DFEA2B7532C8FB9B9BEB49C6BE4C6F517C88A389E93149D7C5DD437504B03041400060808006E687747B43444EDE7000000600100006700000032423538413738322D313331362D343037422D423435442D3831433245324534424142452F52
311
65736F75726365732F31303531454637312D453943382D343542342D393338462D3739423641374131313030452F7468756D626E61696C2F302F636E782E786D6C4D90C16EC4200C447F2542EA31216455A95D39EC4FECA9978A126F8A966004A66AFFBED072D8D358E327CB3370F93EFCF085293B0AAB50D32C060C963617
311
F65514BE8D2F62B8684844FC808921980357D16CA1614F5462B736BC99E29BEB5DB87773C780C9D9F7187631586F725E45B69F7898C914A60DF37DDA0C9B494D09339564B11E6077603F60131AC64DE86556CFA352E372BAAAD3793E9D97D737908DD4F041E43BEF0263A2F8B4CC96EA18EA3F33C8066828C975AA8510FAE1
311
399075A92173AAF93BC43FB1422646EFACE15A9324CBC86385D01C20FF610DB2E5ADF25746D5D68DFE05504B03041400060808006E687747A233C2345D000000800000006500000032423538413738322D313331362D343037422D423435442D3831433245324534424142452F5265736F75726365732F3130353145463731
311
2D453943382D343542342D393338462D3739423641374131313030452F7468756D626E61696C2F636E782E786D6C4D8B490E80201004BF42E6EE76F3C0F216234B883063108CCF170C074F95AE5473F5C4C06E932E4F28601967600677D21E9D8092EDB002539227A2FCCB80E1168D80A6417297A89C5D6963B7129A0D1E8F
311
2EE73AA7B62BBEB8B27DE50B504B03041400060808006E687747BE89762363000000880000005B00000032423538413738322D313331362D343037422D423435442D3831433245324534424142452F5265736F75726365732F31303531454637312D453943382D343542342D393338462D3739423641374131313030452F63
311
6E782E786D6C4DCC3B0E80201004D0AB90EDFD75167CCE820A4A845D83603CBE602CAC26799919AEEEE0D965E2E908050C6D0FCCE04C8BC355404EB6198129C92351FAD580A10E464065907C8D948F8F166375F655BDC3FDC3B4E530A176BE7057BDC43B2A593FE403504B03041400060808006E68774756604A9D7E000000
311
A30000003600000032423538413738322D313331362D343037422D423435442D3831433245324534424142452F5265736F75726365732F636E782E786D6C4D8CD10AC22018465F45FE7B4B694B05756CE1DE63343724A761337AFC3476D1D50787EF1CD97D368FDE36BD5C0C0AE88900B2E11E67175605795F3007D4699962
311
DCFF6E80C2B459051583966B8AF979A0D92E53F6957A171E07A4A4A56664141B71E3B86987068B0B1F3113C3B5673DA58498629CAB52E6D72B5BF3FA0B504B03041400060808006E687747954A68410B010000550300003400000032423538413738322D313331362D343037422D423435442D383143324532453442414245
311
2F536368656D61732F636E782E786D6CCD93BD4E042114855F65426239C3301313DD306C616165A35676087777C90277C28FD1B717568ADDC44E8BEDE0E4CBCD39072EDF7E3ADB7D408806FD42D830920EBC426DFC7E2139EDFA3BD26D050F88E90C239D970E16526522F83E605E9BA46127B3ADAA35FED8C407740EFD8B3A
311
8093A45356C6B89078BA0E3227D4108F8396490E6C08103107056542320EDA04154026D0444C23BBED19EBA7F995CD9B71DE4CF76F9C5652F07744DB78E313045C6FA6516139FA6268E4B40282E7601A55531071EE6E287D705A08C1630AA58546A6AFB590725DAD513295B2E809FC6104A735EC45E447F0108CBAD6CC17F6
311
FE2DF433780DE1A9BC5430D25E6BF6DF5CFEAD027ADA80F20DEA42886F504B03041400060808006E687747E3603EBE7A000000C20000002C00000032423538413738322D313331362D343037422D423435442D3831433245324534424142452F636E782E786D6C6DCD410EC2201085E1AB90D9DBEACE05D09878023D01A1D3
311
4A8419C380F1F82DA68B9AB8FDFEC93C3D7C52546FCC12980C9CBA232824CF63A0D9402DD3E10C6AB03A3397DD192872090D3406ABE7CCF5B5D18893ABB1690CF4DCF02282E5EA8A5BB96FFE536F285CB347F95BEFFE81C9ED5AFF9D5B1FB575BB00504B03041400060808006E687747FE29A1B77E000000A3000000070000
311
00636E782E786D6C4D8C410EC2201405AF42FE1E2D482D0BA029CA411A4B1B2285068BF1F882E9C2D54B266F46F49FD5A3B74D2F178304726A00D9F088930B8B84BCCF9803EA954831EE7F3740615CAD848A418925C5BC1D68B2F3987DA5DE85E701A96EF9D0718AC9855C316B3A8D356BEF98931B35D4303D68538C7355CA
311
FC7A656B5E7D01504B03041400060808006E687747CA1DF9C9A900000073010000130000005B436F6E74656E745F54797065735D2E786D6CA590410EC2300C04BF12E5DEBA70400835E500FC800F84E0B411AD13252E2ABF27A55740421CEDDDD9B55CEFA7A117778CC979527255565220197F75D42A39B22DB652EC9BFAFC
311
089844F65252B2630E3B80643A1C742A7D40CA8AF571D09CC7D842D0E6A65B8475556DC07862242E78CE904D7D44ABC79EC569CAEBA537E3521C16DF5CA5A40EA17746733E0B6615DE7217475F386F18B9481C510F1F021CD9FF027EA0E1F5C4E609504B03041400060808006E6877473DEE336E64000000790000001B0000
311
006175746F6465736B2D64657369676E2D7061636B6167652E786D6C35CBC10E83200C00D05F21DCA56CA76D41FC96062B120735B69A7DBE268BB7777961F8D5AF396893C2ADB70FE7ADA196782C2DF776D7A97B5933C430F15651E5469C55D70F80A4992A3ADC954792C525AE70A1E4D6AD9816CC044FEFDF01FE3FDE9078
311
02504B03041400060808006E68774777196D13FA000000960100003700000032423538413738322D313331362D343037422D423435442D3831433245324534424142452F4173736574446174612F636F72652E786D6C8550CB6EC32010FC156BEFD8C138CE4398280EC917F4D41BC2C44589C1E251F5F30BB12BB5A79E7635
311
3B33BB3BF4F4353D8B4FE5BCB6A6035C6EA05046DA419BB18318EE680FC58951676DF84583C2884975906160747436CE2B24AD09CA64D4D841ADA0F05E0528E433351D78F9A126518A1812C33FCA59C887185589CB85C7688C7A58A57A486EFAAE9503B6EBFB2B3F9C5BD4B7578E1ABCEB51CFC90DF17A7BDB93E6D25C784B
311
AB2C6634E8E967BB744A043500AB37788B30463579C3E4B821C7FAF04EABCC64D407977E5E97E6EF809DF3D55C0441AB65FAC735CEC3FFAE519B40EAD575517860381DF91A305AE594527945986A4E947D03504B03041400060808006E68774771108B2CF50000008E0100006800000032423538413738322D313331362D34
311
3037422D423435442D3831433245324534424142452F5265736F75726365732F31303531454637312D453943382D343542342D393338462D3739423641374131313030452F7468756D626E61696C2F302F636F72652E786D6C8550CB6EC32010FC156BEFD8C638CE4398A88E932FE8A93704C44189C1E251F5F30B892BB5A7
311
9E76353B33BB3BF4F8353F8A4FE5BCB6A6075CD6502823ACD466EA21862BDA417164D4591B7ED1A0307C563D6418189D9C8DCB0A096B8232193556AA15E4DEAB008578A4A6072F6E6AE6258F2131FCBD5CB8B8F34995B87CF1188D51CB55AA6572D357AD1CB0ED309CC7FD5B8786EE3CA2166F07348CE482C66673D991F6D4
311
9EC68E5659CC68D0F3CF76E1140F4A026B6ABC4118A386BC6372A8C9A1D97FD02A3319F5C1A59FD7A5F93B6035AD5EE81FB7B8C8FFDDA2368134ABDB4BE181E174DC73C06895D349E5195DAA3949F60D504B03041400060808006E68774717D75C11FB000000960100006600000032423538413738322D313331362D343037
311
422D423435442D3831433245324534424142452F5265736F75726365732F31303531454637312D453943382D343542342D393338462D3739423641374131313030452F7468756D626E61696C2F636F72652E786D6C8550CB6E833010FC15B47703C6843C641C85907C414FBDB9D82156C0467E54FDFCDA0995DA534FBB9A9D
311
99DD1D7AFC9AA7EC535AA78C6E01E72564520F46283DB610FC0DED203B326A8DF1BF6890693ECB16120C8C8ED684658506A3BDD409D546C815E4CE490FD930C5A60537DCE5CC731E7C64B847BEF0E1C14799E3FCC56334042556A912D14DDD94B4C0B65D77E9F7A70675CDA54735DE76A8EBC915F5D5E6BA23F5B93EF70D2D
311
929851AFE69FED8395DC4B01AC2AF106618C2AF286C9A124876AFF4E8BC464D4791B7F5E97A6EF80F97B983F3457132D5ED33FAE6111FFBB06A53DA956D797C201C3F1C8E780D122A514CB33C25853A2EC1B504B03041400060808006E68774753E151C20D010000B10100005C00000032423538413738322D313331362D34
311
3037422D423435442D3831433245324534424142452F5265736F75726365732F31303531454637312D453943382D343542342D393338462D3739423641374131313030452F636F72652E786D6C8590CB6E842018855FC5B04745BC4E9089787982AEBA23CA5832231881A68F5F98B149BBEAEA278773F8F80FB97E6D8FE853
311
1C466AD50214A720126AD68B546B0B9CBDC11A44574A0EADED2F1B8814DF440B820C28590FEDF6539AB5B2420555E9459C2237465810CD0F7F6881993FC4C663EEAC77987BBCF3F9CE5711A3F8E5A3C439B99C51B9F8D7E44D8A03D08AB17168BA12B2721C608E2A06D980273864C554E3BCCFFBA12449085362E5F6439F0F
311
C1AD5800CD525440846086DF10BEA4F89235EF24094E4A8C3DFCCE27346C07284A0B344E158263D3D7302F580E1B5C4FB06A58D9551D42693A92E415FC0374FBF23FD049657176025F09E399FEFFCF0B4A9250A01FCF76FD0C65D36F504B03041400060808006E687747E3450A4EFB00000096010000370000003242353841
311
3738322D313331362D343037422D423435442D3831433245324534424142452F5265736F75726365732F636F72652E786D6C8550CB6E833010FC15B477430C843C641C95907C40D5536F96D9502BC1467E54FDFCDA814AEDA9A75DCDCECCEE0E3B7D4D8FEC13AD5346B740F30D64A8A519941E5B08FE46F6909D38B3C6F85F
311
34C8B498B085040367A335615E2169B4479D506D065C41E11C7AC8E423362D38F98193C845F091E1EEF92CE45D8C98D37CE17116821A56A91AA29BBA29B4C0775D77E90F2F0DE99A4B4F6ABAEB48D75757D297DBEBBEAACFF5B96F5891C49C7935FD6C971685C70178B9A15B422929AB375A1D37D5B13CBCB322313973DEC6
311
9FD7A5E93BE0AFE84CB0121D2B96E91FD7300FFFBB06A57D55AEAE8BC201A7F1C8E780B322A514CB33C25853A2FC1B504B03041400060808006E687747A9D7FF24F8000000940100003500000032423538413738322D313331362D343037422D423435442D3831433245324534424142452F536368656D61732F636F72652E
311
786D6C8550CB6E833010FC15B47703C6843C641C9590FC407BEACDC20EB5126CE447D5CFAF0D546A4F3DED6A76667677E8F96B7A669FD23A65740B382F21937A3042E9B185E0EFE800D999516B8CFF45834CF349B690606074B426CC1B3418EDA54EA836426E20774E7AC886676C5A70C3879C78CE838F0CF7C8673E3CF828
311
739CAF3C46435062932A11DDD45D490B6CDF75D7FEF8D2A0AEB9F6A8C6FB0E753DB9A1BEDADD0EA4BED497BEA1451233EAD5F4B37DB0927B29805525DE218C5145DE303995E4541DDF6991988C3A6FE3CFDBD2F41DB0D7E54E478B75F6C733CCE27FCFA0B427D5E6B92A1C301C4F5C068C1629A3589600634D79B26F504B03
311
041400060808006E6877472C12AF2D00010000D80100002D00000032423538413738322D313331362D343037422D423435442D3831433245324534424142452F636F72652E786D6C95914D6EC3201085AF82D8631B6C376E8489E2D637E8AA3B6A262E4A0C163F558F5FA85D29DDB52BD0E37B33BC197EFA5C6EE8039CD7D6
311
F4981615466026ABB4997B1CC38574189D0477D6863B0C232317E87196B1E0B3B371DDA5C99A0026ABC62AD845E93D048CA65BBAF4D84FEFB0C842C690087F2D56395DE50C052D364EF0A0971FEBE440065058B08AB68452C2EA175A1FABFAC81E5F799949C1A336A1667B3358DE4021BB861429D9282FB7E78445AD7648AB
311
F4497DD1E01232B4DDF9D031426BFA409AEA3090A1699F49479FD8C8C666380F632A92CC82FBE0D268F62279087FB56FC65FD1E2AAFE196D73782CEE429579CE8297DF4B4867DE89F802504B03041400060808006E68774731669DB608010000B201000008000000636F72652E786D6C8D50CB6EC32010FC15B4776C633B4F
311
61A23A4EBEA0A7DEA8212E8A0D9681A8FDFB424CA5F6D6D3A299D99D61E8E9731AD1432E5619DD00C90A4052F746283D34E0DD0DEF019D185D8C71BF6480349F640311064687C5F83941BDD14EEA886A236402B9B5D201EAC7F068C0F61F72E219F72E28EC3D9B797FE783CC48B6EA18756AFA59ED17C99D14C0CA826C3021
311
B8AC5E49752CAA637978A3795432EABD12C94A89E0AE6E4A2EC0766D7BE90E2F5BDC6E2F1DAEC9AEC56D575D71576EAEFBAA3ED7E76E4BF3B8CCA8754BF8733A12723A64F923FAD27CA5187D37664C82104A20A3C72F6005CD23F127B49FC53F422BEDAA321D5C372C3012023D89601C1B0CE3596F98B16DF60D504B010214
311
001400060808006E6877470A4265E7FA000000A80100004F000000000000000000000000000000000032423538413738322D313331362D343037422D423435442D3831433245324534424142452F4173736574446174612F446566696E6974696F6E4974657261746F7250726F706572746965732E62696E504B0102140014
311
00060808006E68774739CB8E74FE0000003002000045000000000000000000000000006701000032423538413738322D313331362D343037422D423435442D3831433245324534424142452F4173736574446174612F496E7374616E636550726F706572746965732E62696E504B010214001400060808006E68774788E575
311
97CD3F0000904100006B00000000000000000000000000C802000032423538413738322D313331362D343037422D423435442D3831433245324534424142452F5265736F75726365732F31303531454637312D453943382D343542342D393338462D3739423641374131313030452F7468756D626E61696C2F302F67656E65
311
7269635F706E67504B010214001400060808006E68774728BB58AF800100009E0500003D000000000000000000000000001E43000032423538413738322D313331362D343037422D423435442D3831433245324534424142452F536368656D61732F436F6D6D6F6E536368656D612E786D6C504B010214001400060808006E
311
6877472CCEBD668A040000E01200003E00000000000000000000000000F944000032423538413738322D313331362D343037422D423435442D3831433245324534424142452F536368656D61732F47656E65726963536368656D612E786D6C504B010214001400060808006E6877476180134D5F0100006B03000045000000
311
00000000000000000000DF49000032423538413738322D313331362D343037422D423435442D3831433245324534424142452F536368656D61732F52656E6465724D6174657269616C536368656D612E786D6C504B010214001400060808006E687747306552A151000000570000004700000000000000000000000000A14B
311
000032423538413738322D313331362D343037422D423435442D3831433245324534424142452F4173736574446174612F41737365745461626C654F66436F6E74656E74732E62696E504B010214001400060808006E687747F865834058000000680000004500000000000000000000000000574C00003242353841373832
311
2D313331362D343037422D423435442D3831433245324534424142452F4173736574446174612F53747265616D56657273696F6E5461626C652E696E66504B010214001400060808006E6877476F6C32A037010000A20400003600000000000000000000000000124D000032423538413738322D313331362D343037422D42
311
3435442D3831433245324534424142452F4173736574446174612F636E782E786D6C504B010214001400060808006E687747B43444EDE70000006001000067000000000000000000000000009D4E000032423538413738322D313331362D343037422D423435442D3831433245324534424142452F5265736F75726365732F
311
31303531454637312D453943382D343542342D393338462D3739423641374131313030452F7468756D626E61696C2F302F636E782E786D6C504B010214001400060808006E687747A233C2345D0000008000000065000000000000000000000000000950000032423538413738322D313331362D343037422D423435442D38
311
31433245324534424142452F5265736F75726365732F31303531454637312D453943382D343542342D393338462D3739423641374131313030452F7468756D626E61696C2F636E782E786D6C504B010214001400060808006E687747BE89762363000000880000005B00000000000000000000000000E95000003242353841
311
3738322D313331362D343037422D423435442D3831433245324534424142452F5265736F75726365732F31303531454637312D453943382D343542342D393338462D3739423641374131313030452F636E782E786D6C504B010214001400060808006E68774756604A9D7E000000A300000036000000000000000000000000
311
00C551000032423538413738322D313331362D343037422D423435442D3831433245324534424142452F5265736F75726365732F636E782E786D6C504B010214001400060808006E687747954A68410B0100005503000034000000000000000000000000009752000032423538413738322D313331362D343037422D423435
311
442D3831433245324534424142452F536368656D61732F636E782E786D6C504B010214001400060808006E687747E3603EBE7A000000C20000002C00000000000000000000000000F453000032423538413738322D313331362D343037422D423435442D3831433245324534424142452F636E782E786D6C504B0102140014
311
00060808006E687747FE29A1B77E000000A30000000700000000000000000000000000B8540000636E782E786D6C504B010214001400060808006E687747CA1DF9C9A90000007301000013000000000000000000000000005B5500005B436F6E74656E745F54797065735D2E786D6C504B010214001400060808006E687747
311
3DEE336E64000000790000001B00000000000000000000000000355600006175746F6465736B2D64657369676E2D7061636B6167652E786D6C504B010214001400060808006E68774777196D13FA000000960100003700000000000000000000000000D256000032423538413738322D313331362D343037422D423435442D
311
3831433245324534424142452F4173736574446174612F636F72652E786D6C504B010214001400060808006E68774771108B2CF50000008E01000068000000000000000000000000002158000032423538413738322D313331362D343037422D423435442D3831433245324534424142452F5265736F75726365732F313035
311
31454637312D453943382D343542342D393338462D3739423641374131313030452F7468756D626E61696C2F302F636F72652E786D6C504B010214001400060808006E68774717D75C11FB0000009601000066000000000000000000000000009C59000032423538413738322D313331362D343037422D423435442D383143
311
3245324534424142452F5265736F75726365732F31303531454637312D453943382D343542342D393338462D3739423641374131313030452F7468756D626E61696C2F636F72652E786D6C504B010214001400060808006E68774753E151C20D010000B10100005C000000000000000000000000001B5B0000324235384137
311
38322D313331362D343037422D423435442D3831433245324534424142452F5265736F75726365732F31303531454637312D453943382D343542342D393338462D3739423641374131313030452F636F72652E786D6C504B010214001400060808006E687747E3450A4EFB0000009601000037000000000000000000000000
311
00A25C000032423538413738322D313331362D343037422D423435442D3831433245324534424142452F5265736F75726365732F636F72652E786D6C504B010214001400060808006E687747A9D7FF24F8000000940100003500000000000000000000000000F25D000032423538413738322D313331362D343037422D4234
311
35442D3831433245324534424142452F536368656D61732F636F72652E786D6C504B010214001400060808006E6877472C12AF2D00010000D80100002D000000000000000000000000003D5F000032423538413738322D313331362D343037422D423435442D3831433245324534424142452F636F72652E786D6C504B0102
311
14001400060808006E68774731669DB608010000B2010000080000000000000000000000000088600000636F72652E786D6C504B0506000000001A001A00210B0000B66100000000
310
504B03041400060808006E687747000000000000000000000000370000006662782F45383434393939352D373233422D343930332D384537462D3446323631334334303744462F617474726962757465732E62696E504B03041400060808006E687747000000000000000000000000350000006662782F4538343439393935
310
2D373233422D343930332D384537462D3446323631334334303744462F76657274696365732E62696E504B03041400060808006E687747F270F1330600000004000000360000006662782F45383434393939352D373233422D343930332D384537462D3446323631334334303744462F747269616E676C65732E62696E6366
310
60600000504B03041400060808006E68774788E57597CD3F000090410000420000006662782F45383434393939352D373233422D343930332D384537462D3446323631334334303744462F7265736F75726365732F322F305F67656E657269632E706E67355B773CD4FF1FBF73E71C0E67EF7576C9DEF3EC995D46C6A1EC50
310
46649CBDF79E192942562825CE965D8A868C2842C8DE9FDFD1F7E7F138F7078FCF6B3F5FCFD7EBFDFEC41B196891913091804020321D6D7513FC77D8C5070EC3FFEE51B21F068154CC75D455CC028A3EA68992803810109FDDE5D5CEC5521B28A1B422BF80741695D5B529DA1C2D058AD2388BDA9F476F7C2CADC939304173
310
DBF48A452BF8A700C0C70C3D121C1AA15A5270C22E2B9E28763651F7DA0D12CE11077B2ECD0D560B5E3DE2368B1E65C5E1C87384A4CC5F2D9FB8BE39E9B77C753783A37998F5CEF1B4FEE553463245C9712270880DF339E0B882A6BA713D865F6F384C842D440934EF264F4A304F8DE4EEFA1E2BF5E2D91F5ADD9613D6E31D
310
DB33ED31DB1D7916CAF091286EA3D31B9CFECB78BB0060245B943C4C040119FF780A74DD308BA9D028678674EB5504ECF284EE814DAED07440BAF649BE4B55DA2890F4D73E2D489A59EE54FDB0A85B59F2F52C4858A02705C4815A792B0C4A996A2023ECB195073E115E3E3647F64243A8338F2000BCB58DA5692C7E7C3D41
310
3F963FEDF3CF00FBB0F831A9D51360FECA43819F527B89FA260EB63C5DA676830AA3626A3693B23F1A17A0DFFCE3EE164E31B5365EDF0C89EF64D8E38AB0BA9A1117D7C3A0EC44F44F4023095E80BA610DE336D0F99593A88BFC5306E72DF98F7FD132ED95878DF2964EA7E43071359FD83B2BDF9C6B5BDF768F0F3C0FC351
310
199526F53D9460A34511F75D1B63E488178569472C91A94497807A3FD4A390C6558F26D416365C3656DE6E769DA9D8FC73774E1709812842DD8EF96AED1960F79D21B395CDDFE6F92CB4EB962A4668C76990E2EF29798C8941D67DA50F4A5F947872460F1F6FDB794E8A29FD7AC0C0D6E0714339CE258FB17AE8535221E346
310
4A10F29A0BE5EEECEFC5675926A89F49EB14E5711894F6586DB5754EB4D5DA9C6437EBA57DB97A24F8B8A8DB295FFD73266CF57E82694DF5166DDF93573AFE9C9C5EB05F8FEF8E89E0A8917B0B3724DB7BEBB53252581EFC3E38166BA131A3A5B42FE2AD00A769BBFA4458D2DE7822F8C4F63D0B8E21B285AE13325F3410A4
310
35C648C9D91FDEB109E73CEDA7BC796961AF79175E1A3CE4C5E8B0D009B0C9E29EFD98BC8E97554E3D8D838424E270F7685226E5AC268E021EDE3522D583E8F20C0BDE2959EF5BBFEEDAB32FE9A3ED0E39F211A86AA9DEBFC68182EDED132AB8BB794442D2D7EA9F4D8BFF52BC4D55BB165124EE90A42D101E67BBBB292FFB
310
4F66DE5BF2300E44546757DA7CEF8932BFC9F92A0707953491A55C5A5ACEDABD9FA1AEA01BAC3DC5A24E22E7C47213493996EFBC369D086ED9397C9BA6C7F9855C7BD5E15BFC8C53DB3D2A4C5901A57ACD2FBDF4D1676E95338B2C2BCE65FDA4C64F5FEFDC7D9CA5AA1FCF11E193F2FDABF0F4916BF13FB916A224380E6462
310
A9815F2300DC49CC4DF8D055CEF76462F4B7A7ACA7365C2707891370BC1D0AA6203C44CCAB47084FEC057F27FFCD57F89B8B9852459798A675C66BD7CE572CAF71FF7E6D7ECF7BF62CAB7B3F1107DCD04DC55A3F9961700286141C94A4F771FEB2BCDA2DDEE0CB0BAE402FF1DB0100F8E475DFFFC074DDB4498AB7D186A765
310
4DDB1CB680D703D47CEB4E72F8CB13D86A4AA68116E26387B93FD6738779B34FEDB8E517EDF2BAF28D9BE93A1D3A164320E07D42E514725C29515FF361754213EDE06B079A2E99EB1CA82A02019EADEEB87B9AF005BD04BBCECB14AACD6B24EFBE482194A97DD32400685FF1FEF1544D1B14EFB1E7F08E6D2CD2AF52DE757F
310
35F5E62332EE88EA26417AD5C3E0E319D68F25414E6D672BD4522B278C57D18F0113921C71D96527E091F00CEB15AE23D24667369BD3CEFA10C7549D930890BA4366F4EBC55F01F746109F98ABCDD5A3EE06619C6AD78AB33E48E4C9BD21BF7478B385EC05C4F8987E2C1BFA0A60EBEDAA0AE0B015C2720ECE180FB6F2DEFB
310
EB822D96338C9B63822183BBF52FB664A7AE57003AABCE512BF77E7E31BDA2E739AC4C131657DDFE5225E900FB56CC01CDE808FA4A9C9DA16AC679656BB64796283D89812B8F91136AE18EE5EBBAF47A73BE3C153EB5D4CD491B4BFB4FE690A4CF9ABA08C0D8AA64220C438C96EA6CA80B58FE5761E697B3A292EB9FBDA502
310
FA863E49FE694ADDFFF9D62C520BDD1A22014147A0903A05B9B729F54272EF83931FEEC057BFF8C8055C279EAC5C0011804828734024F6CFA319C9CC6867C727184465CD9BB7ED386AFFD96B294A85E3802FAE47244602D8273615952B98C4F23F7EAE4463D9D638EEE374A20959E0FE519C4CFB0FBFE5DD80C2AA3F9DB961
310
D1BDE57E67C9BB47B77FDD74EE3094F5DBBE3EBC1FBDB7393F5116263009E2EFE1AF9A221B2AE234C902BF70E9F280ED23E73908361565964333A3F01D0B006AF32FB21AA1316744B489D5A198E85299241735BE559675130955C902A8ED761FC0DBE337A9F91919AF5CE32AF902ADF9AB2615E00E8A94586BA1A90839B618
310
32FF1BFB76D2EFADE6DB1BA04CCAD3DA649E7E2A0219F592E22F2AD54847EEA8E42271011E9074F8F3DD9FBA6CDF88FFC9FC7E811AD1CA8F4557CE4AFC7BBEDCF0114A48689F20A584520C74DA8127124B767E2FB91A6B186246727BE63C9445BAE02088D58B8EFDC0F1072407CD9B89A13F6303B4A928F593AD489B58E686
310
9325790ADC406036C591729FE14021F94B7796BB11848D463536A092A26F077F94639F7CEEE2A724C66EC885F4A24F8B8A0AC321F8FD149BA529460FAA34E4663C02D41FDF80BCA222D42F0ABFF8490F4FA74C673807C2051D8E467B47B616072860069A9A303ABA9B319D58404461401B0A0F9BE5E1E151C14BC33B32ABE0
310
3DDE91708DFAEB15E7C0D593C86BB7D7EC17BE56E57975F077BFD5525F3A1A361D584A75E08CF29FC7B44B2B3085014F3A5A14517377C3F6B8F37E59514C3B12F8AACDEDDA4DFC49BE5710101534CD6FB6DE15B50F11A09472AABA727F0C49D9CB906B158030065F48EB3625E010CEC1D511D0053474B11E6A4F01C0D6EF1B
310
ED3A944FDEC70E0DDCDC756C86545910E0DAE3BE3AA9A404574C2995CD5CAF9549226BC94B4F4F0F5F9086F418F6B32346464610D8BC7391D3C3A3CCF04CFC1FB2A3A3170E369511868F14EEA4E5E438CC73DB1F3248AA94B6B2FF33B222FF3D1E7BF146CAD229770158063BCE4F5391964DF62F7E52A7BE0EEA829C9E13C4
310
C147D6F93FE59E111DAB5E4594D6F3CD1AD375EE039930EFE5AF2BB2D41C83C7DABD8C659BAFBE8FAB392CA634F3D15C1D945DB4588D2B0824A4EC928AAC565557CA2F0DAA588CA5BE30B3A8004F7BF005E96CBF891D7F18112A3619FDF530DC8AA64954258E1811789B5189B49B4EB53F5F89F7D37523894F3EB57B373763
310
C91E502F52CC99EB7BDDF933FC324C4FFC2561DFFA7339FAFDD0A4BFBE6D3A8FF9ED1FC49898139864602458968913181918F719CCF5A68B2EE9C1FF050E34E63107003B8120FA982C21B30A874E4F5E4B38D5A8290C4B8D9BE48A0BE31EA995BDC37AC6DE90BA17D259DEF53605D55922FEB1855D915B659FBEB350EE0DFB
310
2F9F766E1C84CC8964B75D08667445EAB966015F63A18A9E0A325C1B3DC628C0D3CB60F767FA93CC65F25458BD23C3B312716E5F40E5858AC06EBA9AB14F95DB99147B832069201541D09A0D856E12C629CF32683760EE855537D1901988D5EBC156676C7DD51D7207CF3267AF1D76C2AD867315E44618015313A98B19941C
310
696FED3461CAA9B5415F918556D7802EDACEFD6B2E45853A9735DFC9DBF7E440F9319F8B6805A973BCCDC76C069A9144E51F187EDCC12FC31B5DEAAF0A76137199B106EC84ADA6B6EE697D4E6A96E007417F4E880E8B1E89B4BCE9D81EF611E2ED8F0C1A6C25F620FAFAAB656A7C42D464880E8AFAB0E0FC8EA38CA9A8AEEA
310
EE3E4648BA4680270A89743CDD3E6C6CBF34B7B640EFA285ABC7EA0A1E28F3CC963D114A80123EE66D0AF7D5380EB41909B605AB4765B709B808590458157E69BA1378FEC4B48CAF6A730E3BE3C5EF2DD1A5EAF94B1DDE50CEB55DDFD7EE9A16747FA4B223359FB1FCC69E1194892BABB93A1D5C4E807AC0EA2E30180811E7
310
7A2291F6E7F7FAA5E0F60215BC6024E48DE436C511F0628B8CA189982D4D83CCA17D305A7E923C37941CFDFDCD93ACAF735EF5F0E61BBD3E6C41A59B242790D3A3BAC7064DCD89AA2E37214EC839820949D5CAA31E240D2948E48F690298974A96BA9A8432BC90F5071D6537C9666EA4564796B7AFFFA548077BEEA75F6308
310
3435074BA182F3699557397F71548383FDA8CA34D99B981E72835ECDA5DDDC151315173D05A21F651AAF8524E88209E2E7A737ED1045800CE3390050BCFB8BE588DF111617874C62575039CA588EEFDEFEFE319B739DE2EDC147092A262611E159650E787917885EF08F1F51B8F2D8A71D60B58B190FEF9541A1BE94BC19FE
310
A50784DA1419FE4B0FB51B8D36B5FF8E1286FD8AF42B91E59A5F1CC4D60174E764045FD8C57B18209B217F89A62252BD20BE0E63E12B8E8F029FE19E0E8D0870F58721A557082250D5424F7909369376E41666C0EE77CD87CB283F661D5FB6D0DA023CB67320A20DC7BE661E9E1BFE5463085C557DA1FF9BE835733766C3D1
310
39F2CF9E2208873AD0EB4814DE9E6BF2CAF81614D4D43906ED1C05A3265CABBFE192770FC2F64F940CB6B17B5F166F133C9AEEAD2641807C3E69515171DD74C4A85311513D6EC9530B3B601B6BA3EBFF3B5C3D2F7D69765141E345F75433953D013ADDF8F6AA7DC3F4A7563FE5C7D367937E2900D7EAD0F9FC9A4A1A9B5BDF
310
1FEF08532660C01C5D6DE22199AA774383E306DAB87E301ABB7D213887F9869D4942D0D71E94B27EDF216A318BD488D45DF84529EF575AF3C3938C0AAA0215B01994153E2054A0B894DA5C784980633AAD48576957CF4AEAEAFADC7C587368551C73DBE1E57C58AC713303A8BFC258BD04B51724459FF9E24C03A81E0E0679
310
CEB9B348C0DC998FEB9C6D6EFA77D247CC8F92D3848599ED89A23218D0636465AD1CEEB7DC140D7426F83491C4E8E8281C2FB35240918FFECE880CA2A42D70E8B20B34DF5221C7DB0CF90ECCB9C745B37A47E9B716FF7A97B7A252C1F3814DC7B1E1A7F72B8751D524EF7CAE45B0C73B3BE7D08ED39781B380DDFC9AA4A474
310
9C9493DB5BAD07A6EA6C092FBD0E85DB004DF06B8C9D3089C5320187E4CE1846158C7EA7DDAE8AD9AFFF21AA3A1026BB06A259845E8232DEE62811A4DA9CEAB3A4887320B76E2AE5615EAB7BDF738CBDD01F1E64064BC13D9EC53576751CA8CACD58B3CEB0E6CA585BD089B2A59B9FC101403387AADBDBE70586B93D64BF3A
310
D4453EF9C3B6A93817E8346991798601344F79A83C51F3D50F7BF2683A3605F51A72449489E0EE6169C749C60B1035651103AEE24D24E51A759C840DD3FC6504DA6FE107510E447B43461C79D22970B75DE5E1BD3007D1AFC619A4A4A69B5626AF5E9B8374E20677F77E2F8E73DF868E8BEC7EBA7B6A75EEF7205E1AB9486C
310
B642741D6E03FF13FCCEDB1C4AC129886268B01CDF4B124AF797CF784F3C6DEC97A17D4B558070A0F1C04DA4FF9BDBF34159AEFE958479824B3F58EBD1E19088A2AFDE501B6F2052368A3FD0E650A179EFAB1561E1D27527077136E652676C3670F42DCB3352F48F6BC86D2C3B0051727E41A0A4DC6CE2BE9D47F5CAA2935A
310
3C0539AF080665997194ABECD723B08129CC5B6B21D2E7D54CD4D12610E7E9FB8306771A89576C7A982002775ED44F3F744CF21EEBB27A631671D921938AAEE3EB0D19CD1E083727F607823E817BF599DCED5394E37EEBC2E88782E638920CA641EF74D4CDFCDEF06F4278ECB18E31E7E9876F2D783C8BF429C75395F57E98
310
C2B495A3DA077EB3AC3C158608B6B57FE3EA48484D9A480096FCEE0DE880950E7E5A5714131C5C41AAA29FD19AE81AC145FA1B9E85C7169A5AB837B213493DF7E9AA4B5FBF9CDEB36EBD21EF1181B7CF7366AB2A951D01E37AF4EB835D1BE8C117CFBE7625D2EBCDB0B20C5A4B45CED0BCDE3EE8DA9DA78C2E21DEAAFFD119
310
7E463C33CC6A80FB785669B856EFF7A8CCCA2841B5A5369173320B1170C368B2748D81062EA0296E5E2D95D7667A4A46D98A6FF475C76AAB0A8C8D45E226FAFC9FE0133EA9F60111F99CA81ACE03A1D14C89E8B0D69079C91464FA1D99E651D0EAF606F345C42A8A1AA9BA391031582B96D5B4176A77AADB01F12FD298A75D
310
EEBB2C82F0B8650E880722F8DDD90C56A7A058E5FDEF1AC93545BA27367C76F5D8F9690CB6F8DAE141EDD7971F0FB548A2AE435F224D6E5954CA155512F7332029D5A1230854B79F258EC5FFDB09F5F6343A8EB193229B7F7E79B3E48F8E183860B38C8269D1B53738FF1E0BACF6AADA6D4869E9DE708E79B5DADCC09B1BC7
310
6F649731CFAF59A83FD8BAE4C749D66FA87A3810D4D62FFE826FA400C0F325D2BC0F3CA35F5847B82A2ACC7961745C823E4D863D54460AF792CE6F79B5C7A33B25C3AEA6CDE15A919B6367D781E9D44F61BF828672594A3E1D9EDD6DF179A81F27EAC05B936575D73E05C209DDD2115CFB705DF9BBF3C911589B3640735E9E
310
618FC9C36A7326C82B2205E244C55D56FDB9D5DC93CE958D4BF8174D2B3DA54CB3C09F2C2A6DFF73D23B2197355761AD421EC581284A7EF8DE2CE3497C0C804D49B41DFD6A7360844E5BEFFB495CFCDB97A4595911CDBA623274CE852B5E278AF0BEB1770E9D37CD977B2766A7DED0E94B840E1E95E8C77DE5CB6354AF7871
310
427C28ADBEEF7BA0A28E19DE9ACD75F379FE373EAE6DDDAE3834692F9C2B03B4FCA8FCA9ABE8EEEBEBB725B88A7C90941E850682CA04061A7DF0CE82ED49BFAFFD42C309818FAE14755CAAE78B0F73243ECCCAD7DF58FCB9CDFAE7A4D3E6671A613639130D056C8383C8F4FCF4808C331E544DD26E4755D09EA05253B3049A
310
1E32587CC25D72E073E2CD96D04A71BBCB0038FEC3F53D254199C3CDC67CD66640269431860225392B2CB3ECD0B4498AAE78BA1994246AE1EE78F2EDFB79F6C6CB6B5E279C4D373FBC21CB2698C9ACBBEB6A4BB6B39E16AB0E421CCBFC7654D81ED86022F9BB522146F9F4772E2D0E4FA70120C95A85A417BF5078B232F475
310
4363EB1750B2AC2148EB46B1EA72AD9B4D23ADCBC589D70106C3EC2ABEEED84DFE28E718C6C83502C28E9FDD3B09DA0A6F6F7B72B706A31C9E2A331EE70DA56A083D2177BFD63C55B11D8D949FAFCF90B23A1E24B9B5018B9A17E99F2890EC302F330FE7936E2C23F0D237EC8916F5166AB84B62A21BB0B950146962D754F9
310
2CC2C8877BED8FC7B7B25726DD19545392570B3A2C66B58F027BEF412E552D12A588C4A3CC5C3193FCB3485EFFF700D0B9EEC077754A33DC1FB9E25AF814628F91DDFECB667D3F7690803F38D13F8AE39353523BB08FC6760144AFA2CE28236F65EDBB3D5F59A57D612B99E3D7E5F8A851666BF9B5A6658EFC96EEB37A378A
310
BB0EB3FDDF1303AF32C41BD1C8560745D7BD81066B0D6313359CF488563D3BA3F8E2185D1FAA3EBA1397C9D0E3DD232180A4DCADB6AF25DB3AC3CC26589C8239E66E81547BC7E2F328F9884764CA37EB5DBE390DFC03A5246B456A7C3684C4377D0EEF9A350680FA9A077E8B2957B489E09AB1AD41316944C2254B5984830F
310
691C93CAA767EECF976FA5647538830B5E63236A6F0365C1E0F3E327F24FE35EDDBD7360B0F7374837409F7A6311BECC12B7026D4FA1AE204FA3F5FE904B1F420C7A9044AE58E403E7C4848E7DA25DC9EDAC79DD756FAA26B9EA83ACE8A214A2612A22AFA19DAE7DBAC5F8CDE1292A485F98DAC731A29FE01A3966E96BCB9F
310
B5A4C8830E1B9AF0C54B87FBE221A097036E5D28D1F869F810C06A9BB0AC0612F69AEBAF893C6E7AD59460208BAB3A6B09CA4F6BDDAB8CF0D1F84B72487498395A70DCD754796E271099A567A55CF242BBED64696378BB6CF25EF0FCDB589F3A82F1116D010A9AB9FA4358809EE0C973A2B4229BAA876A70B03AB49CBA7FBE
310
71DB1832FFD32F9BF2C8E98075CACAFB36921235D0F552B6A67E94E094097A5D7DF681B40623DA535ADA7A9AD8E9A62407D7C9A5AE51D62A17A83A23728DE86BB56115804D3F2675F2C6B87541A0FC497BF0CA86420F558C9859EBE9FAD62747E323E3AADC03FDCDDFE7407B09DA90B44E3185723C5381EAEF589765E2F7A0
310
99BA46695BAD60CEF3491B8A171F5F56444F7CE9455312C3498C74173AEA0214EC029833B34B650CBB5A5508D5091665309642791708ECF27CF11DB3D797D6CFE474453BD4BFADB768094B2147814D81C7CBAF8228DCAF5564B5891F5EF6A860EB2E323CB82AB868D8EA048880D63B0DE5341F1B3D53297B928A11E15F25E5
310
148990F710747C3509ED14909C552EBE3973246FCE55D00564D8310BC3EBC5085D08D806799B77D6C57FDF5E55837F9E934F09C03C729271B64F12D0A9F9E938107CAF7BF1EC8CF1BB9B42363D33070F4CACB425E605DDB0A34A12BB936DE286B9887A4E2E558F0886498BFF49C311D96C277CF6A9FC0D75AD0ECC5226D7E0
310
E3572012E56D7FDE4410CEC7A6D0F997F225A2055B8B92E3956E875AE4993CB3D4C9063AF98FD45E1BAB165640A43439A2C9181A7C355B297C0A0CCFFAE19B6FA3C2BA238A885FBC98B8F6DAF4B94B97304878DF4D8BFF6A4AEDF79E90ED4E68F00CD7299F4E0D83E35601AF0CBEF18C1E870E74758FA91F5131075004DB3C
310
FCF09AE1DABC11957FD9808C92E8A678CE9DBE40DDA0E0D1D505AAFBCBA208232BFB6FB3704E8985E61ADE53DE74152F5C7DE74B1DEDCD37DC3E8FB30D7EBA8B9EFFC3606BF90B8D438279CB7709FC7C00D327F41817EEA71CD9E49FE9C8C9A81C70915D9F0F15958EC5AA4C3BBFAF46986B90F188BDB24B89DE3C6F29EC3E
310
6F66D84856EE96A35E657CA41B41EFD8DBFA16AD6E91439EA92B40B21C053249F51AE50EB0B24C770FFAF40DF12C8436366819C48E36547D4E7B72FE2BBF10828583057814A668BDF183F6B2E58DFB151103E56303E63D00F39C27C4661605DB644D19175D02E3F0241E8FC3458D17AAAADB117CE9EEA690D0DB01E634878C
310
04C2C9310B69FCAB831151E3AD293BEF6E46B0ABCECB50F5939B39C613D41E81FAE8D34CAE3C4566B761D37185FE864AC32FCB71AEF39DAA5BAB88609BB980CD2F07A8F941653B529567726E2B2A58D079DD57E1E5E31426CF184A04D7B03B985F276D47406AF276FE32E3328BA866EB1FD39BEF57863A317634AA5FE46740
310
9B3873F5069EF0D71AF00AD189D17BA1974ECDB2D623E9E14086386A6AAB5807825C37B015BFE892AFD154920EC437EB945D958E18622E1E0FE2FA06557CE4BB9BBD05A2D40E774DA2B65473791E314B7D6C886820B2FCFE4AA272B3B8B15E7344A145E8AF919B5454D89D36D413E87211186BF6F645E5EC94DCCE8E1C7990
310
22E4EC9BC86D7A0F2AFB1FC4B2CE48F84B3F49ECE65BAD24CADCC07EFF39AB06BE9E6B27A059938EA7208838455383DDBCFCD967DDE4650EF92A14FF933C975DB20BD7FEEBC4487576485963D757D16340D9599FEB362F775F38CA4185A86F74B629C81B133644A3B18FD056E997E0734F9BE26D11C0AAFC669E2AC9FC41D2
310
81F8B2E1C35AE27BCE05F3DA295488096688719D974DF1B5D182DB7792288697F8763CFB43562C1CDEE11C4AABD5C22B6E33F6F389CFC3477C5919DC0D533F8A7A1846B7ADB60ABDC26C43D0CFC8910B7C15EE22675BD02702ED39DB77A87A192CA7A543E6205B979B9F5A6B512A3CA799E198B2D5797C0AF8D1D872CA455D
310
4D431A7879D4DD76110B5FF7F4176B54477A9EB5E4A5D11214FDA585F0382751D8E2582BA5D2075053298FEB8F1537304E32CB22C2E2B693DC0A760B1DFCA751BDC445AFDCBB12820ED85F6D5298933C7EF1211E9E057684056CDA3FEF3BB6052355E162DF27C59E965A8DDB7F9437EB72CDDA3A090DE65A5B2F50326247B7
310
EC67B73ACC7047FC9B353D6EE990F772207C6EC52B39DC2F3C0754821DAB559F7C1809C7D0DD5B0499D0442E0A6E391B3D5DB46D11E731E6794EC77523FBDAA242ED67F9FA1FB684255671F63C9BCFE6E7E896D51001A6113EF2298BA494E0B0980D1FA5B9D60796554C02256B1E0345FB7C6186B6A19D2DCA270416262845
310
FA4F42DB5D9B0A0B6F07FCA2E56C242522E001E0CEB734AF310FC8BFB57E38E03AACE93B3326A2197891E68452B26A6307FDABFEE0223D3C03C3C73D2D5BC054C8311F12004CAE488E5C29287F8156A2CAA4AD0D7BE6B97264E4139F437CE73ADF52E5134C52B819777C18B323A5924E4F67AFD13B1CDC3A61793A79FAF5C0
310
CEB718E441071E797C6DCCB9EFCF7E4A1E9F3DF3C2F9C9E8294E9586868788C972857FB0556D7A26941A7EEB9B580AD78EC40B85DC906B4120A563CA3B87797ED612D3B035962BB75F6515A393F4CB057F564CDF54F2E5A024514E6A1F901DB80C7E70B1FC05E356A7E72FABF4775B3E3FB8F70A2A8E7B6A94542BB3041579
310
78CCC999E707A29CC795E67A59CC546A5D47B368954CA7B6E75EC9E1F6FC73CE3B4F71F8CB1A6B15923D61EAAEB14626AAA9D04A26EB9C66CD1BE86CA31A5D8703DE04CD1EBCE4F5CCB62F93909AD11E55799A781A956ED27D3E738F4538CB04ADABC7DAEF20BC35BA6A90BCC1DC61BA05F20D8832FFB9BC9B15E2DB838A0A
310
FBB7E0C82A562127E0446894F427794C3037186F622BF24DE1B00AA10A23BFA47B2A180D6DA5AD6F7326FEB8C100C2D7142EB2A0B2A9D1008A09BA343D70E054AB69E2A7EDB783CBD92537FAF4A44D1296AC2792729104B3276C276C951D0CF3CF3F1E6B017720A7B8505A5FF9589365979678C36F1BAF759EAF57C60F1FF5
310
FE9DCF5F8E764FF25A2D06CF25117A8FED51884C13B2B750DB0E4F5E3D64124FCF11F0AD8F1CC3B3DA4B38ED22BF1CB2585EE6BFEBBA63FBFD44F9537B9B37BDD6B358720F98A8125AED4349CCFEB0E135F19E208A04CA7E2B10711185D72E381F448036EF57C9F874E54A971CA37A639E986AC0226DC5AA00D5B14FEA9192
310
234B3DE617814FC221C92F33F1D392F297731B567FD98FD91D989379AF567A65B8ADF177591DB90FBEA99BF4ED11B16E50A0AB1DBF1156D034BBE04D69D08F939D8E92BF525A1DDAFF80ECBC95D8F45D3FDD289FD23F7D8B452F8EBB34EC082DEEE68E18EDDF072060FAD2AB1504DD4879BF67099FC58F6E9DEFBF645D1633
310
4A3E9A127C6F1AF6132CF287E433B43A0EE93812B4AA0B194E03EE3FF91EF9C6ED0074A2F6EB18A96A7C9890B1FCDA1F2095E944DB911ED54C60DF16FB74C8CE9BDC7C54C4F14078CF73C2FFF1F1BBCCD7CF64F71407EA1683DBC410D226627F66E509060D5C0AFD611DE681D509DB8DD12FB1265B03C6F5C55FF4C30BD941
310
87FF692B4F152982502F193098A789526A038AB529A52BC0DC4FB6285CBAC10A8B8DB75DCD9BDABBB221E27D1F8DA9F5EE5926A1C8AA9BA9BC09239C6A7F12914EA3B59EFF7AAEC3FFCCE56F1C5C2980AD072793527565E774F4631DB178CEEC691B1F367BEA0CF2907E1D6B854D527065979DDEF002D8B2ACEA7CE21AE297
310
737EDE1D45B31233B73FEA35BCFDD0B09721FDBAF6432681F2FD10C3E9EFB246FD6E854B344ACC9D8A0EEF876A7314B49B6A499FC650B099D650DBFEC7638ADFD245E2B7839DA5AC5F7D5623FC0ECEEC8653FC9B2BDD1AD4D00A566FBA7186DD3C9CD26512551637498CADB950FEC71ADB9A5524285DE328B8EC7EC75D2345
310
AEC6A27C42AF6D9B92155315C80DBFCABBB7DA0FAE425C4FB896B15C9BFAC4FE67DF5A23D30C93DA4D8F36FB15D100050DA6062E22AEC5F4DAC4F6FEEF97AE05DE63C6D38F9E068A20BC5E3B6BCD75320C5090924E7F93640A7735B1A43451C2D91EE62C6238B797349E59890AF3A520DF4A87095F3ABEC2E61F0593416CE4
310
6CDCBE0E00E2523FCCD04408588B5B6C9DB6459C786CE378770B54F51DA3A5E1DF2A3349BEAAC234A6CF8993B598B3B25B4B113E353A4D750FA7534749430F3EBF2512E7EA3FD43C6AB9A1F765A58463B306721A15D224FAFE8C6F5E3432D57EE697DA0DD5A9D4866A8BCCAAA9DFF1F06047851408FEC060471D0E3EB86BFA
310
F46E4B5E60311DC3E3CEA147C75CF971BE74689507154FF2D2E92F15CDB2B9182B11459FD8ACAC5A85F174BC94A7F4EE4C4F5CAFA7C02E37BF0BC77B7DCD0C047BC316F562A01A441AFA7931CC84A28CB9F4AA367EB515778F29BFE61195FA671F4352E5E46E3A64773F1F76EE5EB36D7BCE9BCEAD837A4D77F8DB8C92AEEF
310
6711920D7C7D0F76B0FD0EB7AB83724CD35BCA7D36DDDF5FBB7FF6F04A91F3E2BB3B8F1A43CD659639507FF6331C5F697BCC782AE57D757A27D97F1AB9E0AEDB43F92F1B2AACDF5FEC8ADBAF9F814E2027003BA2F9E144B1938A7A04050AE5D953B82C45619165C813A10E76DD6906B3C16438064D14CDA713AEC420034613
310
E1AC7241904A49FBF87409AFB1FCB9B72FE7933A87D8FBEDACECE4EDCF6A4FE9FB94D5DEB74FAB7CFEAE17EE965DF980DCCA2D04134994F9A2E94D2265DA4FE6AA7B7AC15FACAC2B5ABBCD7DFF542C5314FDAB2E1B9D8B65220B8E2B638BE008E8DCA22678C820C5053664D15E89F2D735B51A84955E81A443545E9FF787BE
310
0FA700A76D136C27DA179A7C6E8939E01BE756E19CB292798063D8B97F44E8A27BCF3A614FEB8BE974A718E86F7EC99B53CA35FA24F61F2B07266684623A3D4CF073E511F3A10A8FDAFAF0078C577F4DF9D339FE7862E5FA47CF4344209E5BF76D783B1B48E152AD281B15FCB934DCDA49CEC5706B1EE8B460F435324A5CAD
310
154725E21AB8044B75A557A79F6C807B9340AA3D92503E866F4274412926C8C504E4D5EF8C0E68DD0B028781A6B4054F11CF18941F101C57CCC796773ABC8DED9CD91FE5788806C05E548895354AEAC96546D55B0E94A59F148D061F42AA398D822CDECA4CDE79E13469BDCC44FDC990F366BA5978C15F97ED80CBFD73B0CD
310
9B8B83A4F6845BDFBFAF034019473FB9A63BD55D3A4A7284757071574029A4D016DCCBE95DD679EF3C4880BF169422F8C89B68A988D2B13793CAED4F74DE7486C72DC94DF46B8E93D8E02EFCB1FF9B3BA10C8AE7F653DF94F4AF466CDDCEF5776687F7C4C14B63E4EED1719DC2EC482D7DBCC7AE518CDE3D5FF86D39000EC3
310
673C0044E1D308BF05F74D1B5F033A7D1BE7F74BC55BBE3E4A20F920946CA0271EB17BD2B80E5660ACB8A29A79F5E4BBA49D4D945B6EEF4A7EFEAA65E5555BBB57A7E15D2F83C69F30BBB978D2B39F1F26FC097424D39BB33CA3D87ABF64E307938B685BAD44F71556A30B7E712CA4FE600613C3E554B69ADE949A7CFE214D
310
F1FFF05CB82151EC6FC31950239F94CF7AD39DC473F6EA356E5EC2C4EFA04383CEFE985A127484366FBEE3C0EC4FEA363E4F6632AE781392FD45D67B63FB8DF70E82734F431FD3443172A0E30A83D60982D55FA6A2CF86DBA8382502ACC6CDEF3B907982EED1160E14863FA242F9757347E1544275CCDCF71ECD5F8621CBEA
310
326B8BA884AD7F825781923E66971F04010D574C541D8427A438A37EEF8AF88240EED7362C953F5A81DE2D56109CDE2524EA0F5D2F87308C0C47BD97AD605878AB8589E17CA83930CB5E0DCCD75853D68B1AB136594926DE426C367428E9334AFAFF90ECE221BB5DC9E5BB53D2CDEF954EAA9CD814F0E5725F1965DD458E5F
310
8487683AD86B9D0076BE3EE91EB1CECC5331A67A3F79D8B27587C12EC2A6A70474749F27B4C0BBAFB94B34189E88DC18964BE4121B9137FD516C7755356E50D6714E31ACD222621EBBCD1CFF81D87479056A9DA0E0B8EA19D24CF937DA89F78E8650CCBDC110AAB6C4E46DCBFD0446BA9E2060E81F314AC2031E88135E5476
310
AC0160EF5C0DD2EEF1B8B5CB2D198BE9A554A9093B5F7D7E4B5407DDFCA1D9C152FD97F55BFFFDFE802954DFEC8995B983E28AC92F1971E28F531DC407A1280EB125F64A72E617EFB27DFBCEDCDA2D6F2BDADA36873EE46B9BE1782998C63DA7182BC383FB6FD15DA472B175D7E8B4FC88F38D6E07FEAA3FA3CBB8F6B449EC
310
F14D2175E5C5CCA3A42ABF24CA6C9395AF74535F4DDB38CB84F56614B0FD32D7E19CA5CF988DB4449C40E23DF2B16772594554579094450F56F253CD25EA7F77366FB1CFE79696C428BB64D5A41E986189427E5E4D7E2DAE3D5BB4972B3DC44EAABDDDD63A2264ECFA5C786EB0EE1FDC5BE34FA0F08376869FD1E61EA06CAE
310
15191135445EE8F0394161C3266A596AA035572BB0C8876180D8B9C77D307DF9DCDF7365ABDA6F3A2366436457A4DFC1F259666569A9E4A79C817BDD5610E5200FCE894A358EC72858D50EF67545DA81C6FACE3D457BAF70367E1E6BDD9A952FB4F56247F58F523B97E640246051A72F79BE42FFA0B3187F63097F91C48B86
310
8586F714B0EBD5A00A8412C1236E1298F60C72BE6C96B82B404CADAA304AE9F303176B14BA53FBC2D5E86377E35542019E24D97B96A49B2C0E5006E7795954DEAF5DA58958839043C6C70BD3B1B33B6DC5C31316D8A6923F142E26F6711A2258AF977DDF1F970ECC4F1F2B434B96D81BEB6E89BF3BBB3C7C8CC80505070723
310
D6D7D7D3C8CA27CA164A26024FED94B12A86031867241DA53D929636DA600F050BC40CE48B8BA03D69224720DEE2ED2127390BDF5E6EA64527BBD4C4C63FA76BB801FEEC0E61218EC98A8A86CD8313781617877E66692839B9468CF4DB8E50A73986E558E309C0D6F676F921BE02F1185454DC75B111572FF9D27D85EA14C0
310
5AD7271225B391C4275659CA4A43759D0BA44639BE4C30A84DB7F67A41399FB95CBF923B1B1672ABC807C1590557FB18D811983FA97F5E609516D62281D38B1281F68FC75528C35E4CD7DF0F7DBB5E5DD69C414EBEA2F4A5B241B996BA77AE6C772E367408C633EA3E438B68563EA8BE7667F3A4C4FDEEA52ABD78A2820F44
310
3B7914A15F180018D231E64519C56A12F6CA7C8DAE18F06F6B769DBF92329EF6A5D18FBCE600F36BD8E8198DE5CDAA96181F3A756EBA5501CEE58F497EA4F418A2B82565B9BCC611713C0B708CCA1F398B78C5F7D03B3437CC18F13061F55C7BEDADD5ACB1DB0E36D3CE47FF6EA1A563A57E9649EA5D14D1A50EAA45746338
310
1C073777EF1600607BAF6428A7DDC079D47A204EF1E1F1F0589FB054D45E02CE623B3823C317C601E589E22B1E88B448524B86A82828E32345EC18AE17214B42F8C41C6D428016D9BA31DDCB47572561E5A402E5BA4FCE55F78AF7268524AA04130F3A20BA5D1E9F9948EA48FC8F5314FDB35E21898198060034ACE5E3E2BB
310
CA34092518F275190AF65F45867FF0900AA4B81F25427414C372BF51DC29AA855C5428EE1EEDD6B849AD60F6E73475C2D2523F8A2772C840A478DED18A8C5C91B085F255DC4F54EA7AA8947354FD17ECF8FB3B4A0DE7B483CAF3A1165EE05BBA413E5C1FEF3DE1D6B8F2F3F3251C17D9FCAB48A9AAF63AC773A0E413BBC46A
310
9ADF84A566FC920E4D8C52C9769EE3301CADEEEDD92B312E02E2A7E35B7F1E7D203FE5A7D75578B06E99D0E46FFADB8FDA17ED8880390DA29094202D6F645F76F6F96409CDA05495A96E84B04A00D1A6C6C81D7F3DE9376E828CCF144EE50E364ACCE7237EA0BFB5607ED1AC3CFE73794E5B61739D14DF1743441B1AC98F00
310
ECEDE9E7301FA29755FBEFA68C91EF2B314CF510537EF1ABFC9A762496280B546F5EDAAF8A5B387D469FC9A878A92828C88608453ACEC6094DCA54111E7AD5B2663DFE2DD151B7F123B9F4FEF8EE36AB125FD7AD52A59B1B765B3E3F73E3F73DEA93875004D2AFFE3CDE9493B87A9904DD052028949041A91DC0E1BA47BA71
310
4343FD5B25E0A6A09503AFC17C790058A836A324FE31D7893512E28230332F153181C1E018E1124EBE1BA262AA428A518237D1EA7275E48C5C561BD19ED6912EDD8367DA0F31E40EEAE9683DA9257525AEA7B632B97119E17145A90231768A4F3B9120FF32E8319B015E3CBE26F1A754177D8185345817C096B0CE443A955D
310
13AC15E1FB5DEEA0239EC32A3C92241A237B0B02FFCB4F93CF2B02570C8D192E2F2A68CEEB42F12E6F8CEEFF46C251E22B4341C56FB08CCE550E7A9D6F4D6564B9EA52A83D5BF2C6E03FA19D2775E15A8A7ACF30A13C259EE7F5EF2AC3BA354F1500E1A07FC63FB4686E2F12EC69719F9ECF5FE3F35598DF2CE944008CE78F
310
0911BA5BE5D0A34E0098FF038669C26030BA9B300303039852A8F6F496341737CA7E0D2E3AAA36DE0A70AA7D9CA0D54D9AD84B18A44C9E625475E1C97B93BEBB38DCE7D227E67A2D00F531436136355F243D1FC0D712C5765754FA22FCFFAE97919161F46D6E61ACB37D83777B385889770B50765B127768443A5C4D3A4E35
310
A3151111F146B7CA116F918A049F1C272F2CD7976C69A0068773451659A97E0F4A08FE604C3FF6CE7385DB19F4D3ABC8A0D80DA8A42096AC377DB49382B36E270B6FA7570188B4B7D1DDDDA82ACA487CCA5D38BD3BD039ADBAFA4ACFF27809239B722081E2EB9F145320553D183F28471C388BC8814E5045676767AB58A8E7
310
2D1CED2CA731379515D2E533E4CF0B39DFC625F97AC4836831A4DE330E87A8126FA17EBE583D614E71E22A8DBF2825599743E0640037303E8E1B1E8EA4E1ABFA4F62907B5E4E0E5DCFDAB417C36C6848A2B8D15F1E505434C0707E16B1CFC2A1C36A42BBF55734F8F4301DDC2A5110CEE8C0747F69519265012A2174BF4E95
310
5ECD4FDE095A3ABC70536B7AD0B9D7892F81287D667C108703C9B66A221E9A0929D030008F77FF6F5D2108EF5706FC87A3069B976F7C9FC3239D13D283CDEA83597461079FEEE049B0F392889898B7D87D31F8D60ED7B56B91823A8E4EDDB36C6172ECEE42BD42B12CD67994FA0F0DFAE9389356F4CD4425A4B8AA55CBF7EC
310
D585C6A2C2316791E43D5C06841ADBB226A87FD61515FFBB0167B74E56BD7F3E90A57A97FEDCBDF483A0D6699A8C0849CAEB4947FAA90D8E332D9DEBD9F4738C37DA0CAF9CF3DAA68BCB67C420459C7A64498D6E848E5CADE92BB6901F607AA331104A67F7CD650EE169B1DAE94D2C31C2F993632259B6957E246EFE4C5481
310
107B07118607700040E5812A2A2A38DA0076875258C753F60E0F2662C748EDD5F3F3686B8FC3BD6FE631ECCAA1E8B1C1E565AD117E54893E79F4672E32F9E46B2A183DFDCF3EECB4D4D077DBEA0DA254D256045109670050129E9B9B1A9E4A11344D61497A992778095151510C4BB7EF2009B63AA4360635312E4CF668B7E0
310
D3D85A8688E2BD83B569439892ADB63461930D428E0DE42E4AC57CE48DA5CC1449530D8BD3D6A0F08DF20C8E8F570F2CFFFCEA286E30969B4654D498A58D9DA782E19FE3F002181838925592C4A1EF0B332D88B61A92C644547BED490D3A42CFFAB70E36D961F694F6307F72FF15A1C79D5B1B5CEFD353D9E2B52566DEC8F8
310
F09CB3E8359C0F68EBBB7898243E34E12A015B2685AB303C04D3A9E00671FF3DFF0A184E4A2ABEB2B666AF5B3A209C73D8EF29DCDB069C9F391EEE9DD0F74C7BCDE16F8F02E3B8816122BBEB50665775B600549D8BB33A54A6BF940C028118BC6878C79958D6784F9DEAA6E26748386FFAF8D0D0101E2847B6563F5D8DC1D7
310
8F787BE00E2C941AE12148D4A81599FE8F68D4DA5CDED75530ADE138240300EE13B0FC13A1687FED6774662C05A2B7DFB186732F0D7A93545D8B0A6390AE5054D9CB582DA846D7A061B3358B45E2B52DDE63E114397EDB7E09233A579155D795BE76102CF277F4DF8B188C4F2879BEAE3C08347124BF9ED23B128259FE107D
310
31E34A652F090B30B39E0D9AF917B76A2806135621A8A60681F16AF216514BBD02711585B5B1AE823F4B2D0369EA5B6BCB863072727FFC871CA6C9AB79A814D989057E9470A3D238BC87CBB4A0EA49AFE2B86F22E499793CAA9047080450166BDC357524561E258C77CB697F1ABB32562CF87C3B7AA12F911EF19FB3E5C022
310
22E887D08202A60A17151F5E053A86B437771088B4FEE14D652C43E8D939995D34545E12E2FF93D4E366EAD25F10CB7DED141563C3D0C447AF06078A91135FD4B9611583CB4BF3BD167F2399CEAB0E0100F8FFC305F00F1711717173138B4B48C83022295DE657EFEDD97F238ECA80F528AFB4F8D67AD4E2594B9A3AA86D74
310
87EFC313BA95745C186F0CDD84CC12DC9CB0424B42203D351FD9C0A3AF10CC7F388E0329279087386421F194F4A29464C1DEF7EF8BE515E4A199DCD5B909342598D8FE6A231F71336248D5CEC5454455C7BE383B3BC7B260FED27F703FDC39A170F3827239102F59D4DEE7FEF82EAA1A5E4BA94DCC4CC44E7E2EDE20F24244
310
E4454369D2E87C3F823F193FD4FD27E1C23984B01898D15ABC20711A8A558054951A6AE280096BA36CBA439603B7B0B4C45F248C14B2383B4B5CD8ECECE4FF859AD4A6CA2326D020EF090F4041D28DB66E5256B56232CC52829DE8060BAE6BBF37D4B7469B822454FE93210A3E8D15E69FFCF01123222611C51C4FD0A041A0
310
CFA2471CF6BE38D2B20FA4C3525B5B8B586759475CF80ADFE67A284AC24651E52B8E683D24C2622642F27E7C3C22783BCF63648BC398BD6CD0D9C97E7E7E3EACB6126DB7A6C1FD9F1031302EE67ED96F22B77C7CA0239BB324207559B105E4693EB26EC46182A92C9C0DBD24F29B31C5C5AC1F84300E0E17CEEAC15F5736FA
310
4A98971E2F1423BFCD68D4BBD5F86E74B40A369F39507C88FCDB35D2DD8DEBEA4AF999E23CF2816D204200DF6E611781B9884C1AC8888B4DE397320472959434323A5A36B22A8E1F721A270DF3BD65E4A31C11FF048AFB0D8B7B6881423793963A23CFCE935FC189ED36FAE35C46DA3574C979E4394BE52084F3081837BE03
310
3396D2EBD80F1F691B273F660D2B32FA27A33B1DE4ADA5F0FA4651511102DFA410DDA86E065272CA314D5249DF91B06BB92807B28EFD54F08F7B525252782CD276DD02E6B0319B13DF87B1F6361AD6B28FC0D711CF445429B9E5A433CD493051C49A9E03DDB1B147D880253514A5DED88009018620EE229101C041950E2D8A
310
A8E1F5F5438E0C0C0C60EEDEE9E3E0C051948C69F84BB7B2A48A1F3C8EB9E6864687F4F4F6F6E2FA87608ADAF9C5E117B7C1A737E710769DA1D15ECE6A84502AA855398712D5FB51BE92E4EF824969CE18278798AC303C2C7980DD2500ADF8FB1E6D6C2FAAFF9987178923334A244758BAA01A9A1B70FA5097D01E1CC2A58D
310
AD0EC94CE6430AA9B0C10D75E3C6BAC670EFBADEE1607739CE0FC18A2587E3EC3058562014C64219C69BC269082D5C2F4A659278D585755912176D78A1B641719C2A394CED495A1AC5D583FD2F5EDD93308EA7EAE8A6DD396598BDBD3D4CFED62D18A5BDFDE0DD5C80D1A89BA62697B131AE7CE9A6594138582F1B37D68F17
310
49AC7CB67A70695D48A4A056AC1FBD4E82358CEAE38F54B95A9016F9000F9879C0D9D131768635CA798895F27D6F1614F11F2838A83611AA51C9A3DDB539D42979C29F10465655C17BEC3E2760B80DCBF609198C7B171A531905F3EC218D696025975E986C6B4C666666787271F202805577DD5A3EF0CAFAF91B62DC4B2DB4
310
217A7606282F31D8DDBC290593BAA93EA6353AFA9939B877978481E15CFC9F2755CDC00C538F63A4BA3E80AE009B73CA0185687D339A507D165B74290D6EE46D5C58148F020C3668ABE9EF2F7549170DC80DB41FFC1D678FF19AEB10C7133832B104B80F691B3138F97A92D26E551F1F110400D45AC71A9B9AC41A1A1B1DAE
310
ED0B0810638EFFB511D46B121C6FEA0F38CD00E03CFFEB9713FE1F9C263E4DDEC160D0497FA9A132BA608584057FB15380825DE6C7FC3C667EE947D488A09898D8E939C4953BF4EC9836344D2CC6B2971B2A21A572B06096F4982D2CC7232D46E8EA69DC83722E267754D777F97F96D5DA74E1E75178084D0E70F12AD33E5F
310
71EF2AFA599B2BEBF60A5BE475F444F240CBFE8143C334E7ED9150FEEFEF7EB020C4DBED388DD1D6A167A76F3CBF119B578AE8CFA7736ACAFA4440A1C47185638A0D2F3EB5BDDEFDA958FB13CE4AA4923D5BF840392D45544329525749734866684BF7F8D9D54D892E19BCA9F829A0F8BFCBEEA6CFDFC61D74EA1A645ED7A1
310
FF241739F15694BD835B66FEC5677E40FE69BD3F91AE402F036537218A401CB0828604AD189E575015C6F3F6BBC8AC79CF6C70653847254B31551EFCBEB5978B9DB85D58D0FA41A9DFE9C624834AA04949D24B5AE6D299E072D152D12097920F14AA92C31C3B97E28B6C2E6E9C23D63043ECBBC0A60FDF5BD0C33C127EA8A3
310
308B8B6AFFEB28B4455BF6E7AF4FC6222728357EB8E46E85053E6A8843AB23295BF838ABDA94658FEF3F832F147046B4ACD6F7D48E8FCC9618582961C898D1C7A253C91BFECBDA6BA18A1FCF70755DCCEE2222F41B76D23CA98D0CB3D95F0CF66D57FFF65E2A90F5DF40FC3187621E981BD0BC1D992787212688976B94A8F0
310
C6EF646624B570B78E068826F87CE27041A95C9A4871FF65CC17FCB1639629AD6A9517000D63AC231F3D741CB8430777E7ECF80CE7A3F73C0F162F7E56AA71F4DA80A33CD6ACEE78E2C11FAC03DAFCE929B106F8F6B3ED2DC71FF994BD9CEF4E9A94896EF1B6E2B7B4978168BCF0847A3D2A4F1B0500B926E634B174548E9F
310
BAD27153FB5FC36799B1E6C7C38A94E1F9E996796D7B485E635D5287A2AE76FBD11A341DB3F8F810385BB7296391973DC6C37C452A9305AEBBE0CDB6C566DB59FE60C8E94B1FD090354BF51439FFD1B48D725228FFA88C84F686F547107A7A235665A4593B7C34D748C1AC8D56DD5DA861EEFBADDECBBD65117E65851F9035
310
1AEB65F0EFCFF4BCFEF24CB7A5879699FAC437A7AF9099186CF006BB923A59E37D7A36A29FD8D2CBB914A5E9D0A8FD212FBF796AE9A67958FF1D5D8B85F78F96219D4714EB919929241B6C018AAE0C02069F8D919961EC5DDFBFB7573E3AC8E08BFB7C8534BE6DE045B3CD63DBD71F7638BA2309CAE398EA3A7D8F98BBBC7A
310
EB367EFA5CFA27A9F8F2F52FE878058E6209C026453F8E7E8A237DFC389E9590F6059B397CFD65183BBF936E86896612A5B5FEE49DAC8455D026218AFEBEC12B3523A45B57B82C9C97E02ACFA1184DB18E48CF615DBF39C3CC6F0B4AE6BBEEA2E39D944E290302FA3DE33FA7E40296E2EF7BF1CD855BBECFAD0FD622BEE974
310
6FC4FDFDE545AE6E3BC234CADF83A0FB76DFB145BF3828AE3436368AC24989454F8FF70A177672C711CAA1A76107218CF948CA01F873520E7A2B118EBB161ABAD432932029628B6761590C98AB590C8C8C79798CE9F715BA696E839E9131A4BB68BE923F1747FBFF165331FFDD4D05997ACD168F12CA75348DAC04C7F509FE
310
83898A8B421181AF492861CE81E4A2DD0A30850CFA95E05F097FF70F9E777310D584A75BA7018922E271DAB1D785671157685B7D383D3E074DDB4F1E44EF04B07BAAC75A062077C54B9752C738C9D804D402E02851F3F89605AF189738C18C021D2139EAF72513824E10DDD3047BACC8521ED7E98B257D1166903B1B08FA6F
310
918FD7E162913FEC7D0EF4787E29C35FBA8C6E2C9C20E9AB30AE42CA2A01A090E7D010C1B5BF9CEE2A304BF3A987FB40D836979B79E18D70F257DA61E808472DD85B82761825779D6B90CAEB0F23360C6F80A7D7D77545E95B3DFF0CF96A827F9B5BCECD2C9698718417EF80FEEDEE938AFF55859D0D540B7FE09435583A6F
310
04874A0C7E8CF234DF4879722000167F5872CEC6BF3EF7E5A8CC8121E6A359227C8A29C95212F9F735BC72A887D56B8F309FC525BFB4FD767AAEC4AEFF249CFBBD2DE1AB9969A6155C7D8DABC307E47324C1F916C7BCFF40ABA5644E9FFB9238D19ADADA49D9610F01ABBA57E4DFCBDCCBB2B93C8953206C91DE01B0E2651A
310
6D6C31721915B31F7B7CBCE55466F6D70402788FA91D73BE4ADCBA99A35F17D6B83383704917D6833F0FA3CD45C926ADB8BC17999A4A0AFBCE2541F7B8CF4C2F5FBA611B3E626D64407CB32C122DFF4EF8674D6EDBB86C8F7C6A16D50FA685E2CCA34F8F7D1D8265BB0042E9D7F1F666F7BE5FAA5184DF58E12122A42EF02F
310
461B3F369AC746F96528AD208512AB56844CF75B97F352DF7995024FB02855385854F3798670D01CAC771AC3E1889EC25F61A20C1F8CAB46898817F9C47E2CDA1F286BF2F358298709FE567C91133E2638C8B53975E753EA8BFD3578B5F7186B7BF084EBA3F77BAC3132A5779902EC22AF2D2E79F42D324E083386DAEE9810
310
D1B44A5DAA54513C7A71E52A4AB9257D975B621308FE4D2141CC3DCFE946C154A3C1DFCCA7629EC69ACFA831634ADDA93C0388D2A9A2DDAFCF957C6995BCE7FBB6DC4EBAE79E63EB08E9A25F52F67076F7093CA545CA3053B5BF576DEAD4E0017143C5F759F32B2D6F145B52B67B48909B7C7FCA6586EE385A2189C16932CB
310
6DDFD9152AE317C430492A578ED27B72D85D40C7C93C097939E1B50F4D67F05334FE9DC362C30B7FF561B95259138ECFD9274C8D695C31B14D4EAA9F3D7FA8DDF652F8C5DEFA23284C799B7D94416DEE81E05A866302DC70192A5368EA65E1CED8BF107A1E2D3119A71E85DC1A7B0C1E93274CE04DD0F2ABC8AC7C987FDB00
310
2B6F81757B43502EF7A0D92E416494FAEEA4C9C090CD9557AA4D532F4996A272B94355C5A0E4974EEA9627476F30809B94D8D8D860062E02204643BEC7D0438AF800FC7E2B26955D595421E83C69E1A07E0E3122285835F014AD538188CF9737CE76D464A353FA55A001AB2526B84E985083693BC76FE211CA1D000679C889
310
E3C009832C87E1AC2EDD05C302557422DF0800E316FCAC86978A371F025A6C7DAA9F333E7BD160403A1A06EA75AA9888FF01504B03041400060808006E68774751464CB48900000043010000360000006662782F45383434393939352D373233422D343930332D384537462D3446323631334334303744462F646972656374
310
6F72792E786D6C9D8F310EC2300C45AF127987122606C71DD918B841D4B851A43646695A717C52A85029031293A5A76FBF6FACEF7DA7264E43906840EF0FA03836E242F406C6DCEE4EA06AC22492573150D1F66C60C640E8938CB705396EEDD86DE9B5042FE27813D640EA63BB001C722AF6E55CB61E4863F58284D5D3F53D
310
D715CE1C3985E63FD7F1B7EBDD617E9F1E504B03041400060808006E6877479B09708439070000211C0000340000006662782F45383434393939352D373233422D343930332D384537462D3446323631334334303744462F6F626A656374732E786D6CDD595B6FDB3614FE2B84F6B23DE8E6BB0BC7456CC783D1A52D6A74D8
310
9B40CBB4C34537505262EFD7EF90226551966DA56B816209102B347978CE77EE4793F78730402F84A5348EEE0CD7720C44223FDED2687F67E4D9CE1C19E8FD144D581C67957D068A7048EE0CBE6C4C277B16E7895CDA921DCE83FAEA72F6174A7D121103F9014ED33B23F59F48882D9C67F196A4CFD61667D8DAEF0E966B15
310
1B75B27B8693A7DA55096624CA8055588F808AE4C0D5FF0591ECE9C4E61BB46D9D76DBBA57B6D942709D511AA5198EFC33AE6A743AEDB8EABABDC543A73F36FBBD5ED7EC0D3AAE395BCE16A63BEC3AF3C17C3EBE7F181B683AD9C471502A2021D116B47834A6EEC4E6DF94E24B149AF8F6E32822BE44B369C39648BA94A475
310
4C34605D215A452185AC95856E4BE12F6C6B058AC69286B6124E7D56AD37DEFC0D20A46DAC94A5845B799A31D0B5C4BEF007676217AB9A5E688A429C1146718002BA61988182606BA1208D0CF7164E0A71CC841615BD2AAF60D8B77DA989CB5D1E04DC7F8DA9F0340FFC9164A9E08CFE43D889FBEA6DC013489BD3281B4961
310
B3630224C6135B2C16DF753BF2CB0248B40BF01EAC05C4E49BBA9D1A5E731E0B560B63FA61B939AC797C68BE3C61714258C62D4F38B3F43BA5C18A6981F1B500A5C055D7DD09952F00FD4740BEE4054D40738C1E7A879E929DE128DDC52C04ED2007990EFC71107F3C7B9AD8E5E129425AACBC8429B8ED77C2541343BBBB02
310
E974F202461FB3AE146EEDE3006CFA9146DCCFC1505010C312C4FBDDE6604C57104C61114EE100A487DF89CD1F117C147420DED434D4147E5B284A394CDDCF4EBAFA1D6C8651BF549526E3257CFBDF05DFFBC5FAC33A673BEC9347E9D80BB2A311CD20993633A481AEB9FCD7D547E19167F268BB7CB8671FF3C0D1A097B5D4
310
0B128A0156781E2E5423561E29B87B10E088C4792AD79B02951F0731F33647AFF0E1C6BBFE5446505C06FECD2DA031984176F7194D3828C6548A574642EB84138F83D200F78552BD0DF69F39BC9E0F11EB5BF800ABC5AC4E340F130F87711EF1F07D6EDE75D1ACAE237E5C77DC71C69DD178A0844D0579E53D2A3494CCF37B
310
429C5CB864AE694B460D45B9F0A31E44CB26097CA899F2CC8B13ECD3ACD9166A42480F05B0AFB2BCA5BB5D9E42506F84A5C6B1D575FBC8A9FC2D2FB9CEBDBCC4A321DE136F8779866BBC4F03A824AE246844661FC4694A23928A0AE52C72D550712C080485DD2AAA0D4648532F2419FE16FB1329AF667E8CEC020F6AA98C57
310
B3B7AD4F3128B3E7258ABC728B234FC87FF4521C264151A5DDC2C0EDD46E68C49533CDAF78017BF370E6395B228AEE5BD4CBB8A0F06D457DFCCDE42FC0C3F00F87475D41A1F4861C795BB3AED577C7FC67044165D077BB43A5885B58A9AB325E830439544DFED17B2574FFD42EA0B5BA2725C1CEA34190875E910F32124209
310
86B39CB5F2D741DF3953BE8C0B3587A8DCB4A30114C8AD83A6A83D54F5015289E2E352D0AC5C0342D1087AB456829C49D168C24217A21FE56DD76DEDBF9DEA7F8E97D53EE5991C5F63B66DE4542F235405A60A061E2E65862BED48509E4EAACE178AC6E5360E3D4544C6B7A24B9016C2C80BE58309D10135F60FE92BCE7C08
310
A46BF169CEC023B6647BAA29347272CC614CE152454DD5A9D54E07821D4F1F5AE1B5E20135846903E671F6913F045F30A81A2ABFD496558D5DACAF7862B360B072E2E30AAD4FBFAF6B5460A5F5E9CF1C23F25AA32057E7BC90BB42EAEBEA54AFD6284889BEAEAE1CCF9EF2701361CA3323370BBC4DDEBD17BDE49D0D8D82FD
310
30EAF520BEF5CD61A73B337B63A76B8E1E864BB3B7EC0CDCEEBCE70C174B9B9134CE994F52BB633B9EAA9D9268AF0CA380AE4D47015385DBAD9FB2E7BA82FFBF1DC5ECF8073E56BB7ACD187FD68EA2ACF778455673C6B61D4563A4DEBCADFC77CF227573167B53E95C0C0B94855FCF5B108D54C26F5F5B28D2AA9468E6B992
310
12DF98792FB62B3F3CC96811BD3141683B9A62BE66FF7CF8D490A6547B5BCC389CBEFBB01CBAE6C3783E327BFD59CF1C77474B73389E0DEE87F7AEEB380F25E23219B64D2C3F451055CC56E668300E4EE380C2549E6CD19EC4D002C1D8A14580652149456B031580CCE3EA95408BD32FC55035C39B409DF69F304CA6039992
310
731FA6A2D076DC19721DFD0273503E8A14D329EB19328FB47603E58CDE196002198504636D609E25A687827A6D5E096AC3D19E374DC5A9F2FFD3318E0ED8CA49AE724F1B5CA4649A75C27420112F0A20DAA98AE4DB4557EC209CC1E326CF4A614E0B27692408EA8D40211C8CFD9E25BC07083CD7E5722DB14783A4D568FEAA
310
1D1454CD0CB3BD98AF57F0BE5F7CB6F9687CF5092541BEE7EABC96F0354A262F3482BC98424DC030A49809E68DF8FC9DFD99C5F08E29444B0A46807E3D8C06BFD9F3380CE3A858B2EFE59B2AB47E82F74E5B5BCDFCA07271DC812D0A1F39D787C1554A2CBC4D9F610154CB281F8E16106B065086A78A01288D705DC0316DFF
310
6A816412A8D4B0D5DA95C32386FA081C89BFCCE16E53DD509940822F0057C5A0B67C500B139BC1147CFA2F504B03041400060808006E6877473B890128E1000000550100003C0000006662782F45383434393939352D373233422D343930332D384537462D3446323631334334303744462F7265736F75726365732F322F63
310
6E782E786D6C4D90CD6A042110845F45841CC79F1902C9E2B82FB1A75C16A3BD4676C61EFC09C9DB47370672EAA6EAA3A92E75FEDA37F20929078C2B954C5002D1A20BD1AFB496DBF442C959AB8458FE619444B3C34ABB4CB5F209EB3124073753B7AE6E21DE8728AE1E22A460AF47F494D8CDE4BCD26C3F6037CCD4820EF2
310
9D39530C932C41C69A2CB41325EC304ED804A680A37A16F27992729A978B5C4E6239CDAF6F8A7752AB77C46DF0211648783CCDC2625B634B2414EF8056358541F5379AF1178FB5788A375BAB5C52EB6060E5FB6858D88D07FE407E5DAD787FB28D47036DF642F40F504B03041400060808006E687747FF15A4A45D00000080
310
0000003A0000006662782F45383434393939352D373233422D343930332D384537462D3446323631334334303744462F7265736F75726365732F636E782E786D6C4D8B3B0E80201005AF42B6F75B59F0390B113044D83508C6E30BC6C26AF226F3B8BA6360974DA7271430F523308B2B198F9B80925DB700539227A2FCCB80
310
A18E5640D320F996A81C9F32D6E9129A0D1EF74FCE750E6D57BC7165FBCA07504B03041400060808006E68774760F910184201000056050000300000006662782F45383434393939352D373233422D343930332D384537462D3446323631334334303744462F636E782E786D6CCD94C14A033110865F650978DC64778BA025
310
9B82079FC08378CB66A76BEC6EB22413B16F6F52D35691A287427B0B932FF0FF337F86AF3EA6B17807E7B5352DA969450A30CAF6DA0C2D09B82EEF48B112DC598BDF30521839414B5299083E381BE65CEA612DC398AAA3369B5C94884E7701C193428DD2FB9678F50A93A432A0EDC16F682F51D29A3AF0363805F13DEA09F2
310
7BE54022F44434557D5BD675D92C9EEAC5B25A2C9BFB17CE12297867ED98796D109C9D6F9A4AD97834514EC55902040F4E672A7920E2A88D76DA7016EF05F751AF193287DB3971F33C6A2531368A5985806584404E9C7DC182B3E4F887EFC787E7A38678EAB50385D66D2FD686FA541B0ED2684CC4FFBAB003FF326FBBB768
310
F972733F69380B3B9BDD7D727D8CEEEF24C43C49338CD7F8010ED2CE9FFFB85850AB6B34BD577626CF6CB702E3E0D346149F504B03041400060808006E6877470E9C3DB77E000000A30000000B0000006662782F636E782E786D6C4D8CD10AC22018465F45FE7BCB4D4B85E9A09AEF319A1B92D3B0193D7E1ABBE8EA83C377
310
4ED77F568FDE36BD5C0C0A9A030164C33D4E2E2C0AF2366301A8D75D8A71FBBB010AE36A15540CBA5B52CCCF1D4D761EB3AFD4BBF0D8E1201893529E306FE9053349281603379899F6DCD02B23FC668A71AC4A995FAF6CCDEB2F504B03041400060808006E687747A6D797065F0000008200000007000000636E782E786D6C
310
4DCB3B0E80201045D1AD90E9FD7516806B51190811670C8A61F982B1B0BAC9C97B72CA7B1037C6D3332918DA1E04D2CAC69353902EDB8C20262D23F3F59B81A079470595414B17391D1F19B4730A5583A7ED43BBE4025D9592775E5ADFFA01504B03041400060808006E687747ECFD112DA800000026010000130000005B43
310
6F6E74656E745F54797065735D2E786D6C7D4F4B0EC22010BD0A61DF525D18634ABB506FE00510A79458060253536F2FD89D5197F3FED3F68B9BD80362B21E25DFD40D6780DADF2C1AC9671AAA3D677DD75E9E0112CB5A4C928F44E12044D22338956A1F003333F8E814E5331A1194BE2B0362DB343BA13D122055543278D7
310
9E6050F344ECBC6478EDCD76CE8EABAE5449AE4298AC56946789C28AAFBEABC53F3EAF09A84A1441B91F0101CD4780756578C173A578FFDDBD00504B03041400060808006E6877473DEE336E64000000790000001B0000006175746F6465736B2D64657369676E2D7061636B6167652E786D6C35CBC10E83200C00D05F21DC
310
A56CA76D41FC96062B120735B69A7DBE268BB7777961F8D5AF396893C2ADB70FE7ADA196782C2DF776D7A97B5933C430F15651E5469C55D70F80A4992A3ADC954792C525AE70A1E4D6AD9816CC044FEFDF01FE3FDE907802504B03041400060808006E687747F9C58C91F30000008E0100003D0000006662782F4538343439
310
3939352D373233422D343930332D384537462D3446323631334334303744462F7265736F75726365732F322F636F72652E786D6C8550CB6E833010FC15B477036B92E621E38896F2053DF56619875A0936F2A3EAE7D70E546A4F3DED6A76667677D8E56BBE179FCA796D4D0B58D6502823EDA8CDD4420C577284E2C299B336
310
FCA24161C4AC5AC8307036391B970D92D60465326AECA8365078AF0214F29E9A16BCFC50B328450C89E16FE522E44D4CAAC472E57116A31E37A91E939BBE6AE580EF07C4E1F5D0103C3EF764F7F4D2910EEB13A1FDD053A4BBAE3E1C5895C59C053DFF6C974E89A046E0B4C63D4124B479C3E65C37677A7A67556672E6834B
310
3F6F4BF37789CEAA15FDE31697F17FB7A84D68E8E6B62A3C704CC73D069C55399D541ED1A59A93E4DF504B03041400060808006E687747B209A6E9F9000000960100003B0000006662782F45383434393939352D373233422D343930332D384537462D3446323631334334303744462F7265736F75726365732F636F72652E
310
786D6C8550CB6E833010FC15B477033649F39071444BF9829E7AB3CC865A0936F2A3EAE7D70E546A4F3DED6A76667677F8E56BBE179FE8BCB6A6055AD650A05176D4666A21862B39427111DC591B7ED1A03072C616320C824FCEC665839435014D468D1D7103A5F718A050F7D4B4E0D507CEB294312486BF958B5437396149
310
CB9527788C7ADCA47A4C6EFAAAD181D80F940EAF8786D0E3734F764F2F1DE9687D22AC1F7A46D9AEAB0F075E65B1E041CF3FDB9543197004C16ABA279412D6BCD1E65C3767767AE755660AEE834B3F6F4BF377201C7A1B9D42CFAB75FAC7352EE3FFAE519BD0B0CD75557810341DF918085EE594527944986A4E547C03504B
310
03041400060808006E687747BAF3D1A7F2000000B1010000310000006662782F45383434393939352D373233422D343930332D384537462D3446323631334334303744462F636F72652E786D6C8D50CB6EC32010FC156BEFD8069CDA8E3091DAC65FD0536F08130725068B47D5CF2FC4AED4DE725A343BC3CC0E3B7D2FF7E2
310
4B39AFAD1900973514CA483B69330F10C30575509C3873D6863F34288C58D4001906CE6667E3BA43D29AA04C468D9DD40E0AEF558042DED363002FAF6A11A5882131FCAD5C85BC895995B8DC789C05BDFC4AA55322A80938A9F101618C08FDC0F458D323E93F5995999CC5A8A7DD4A4FC95D5FB472C0CF5DD3F47D7F402DA1
310
AFA8E96B8ABA733BA266242F98BE3575FB3EB22A8B39F3C1A59BF74FF275CFCA37E1BFCC719D9EC8AC4DA06437DC141E384E791E0BCEAA5C601A8F76D3CC65F31F504B03041400060808006E687747BAE16F4354010000DD0200000C0000006662782F636F72652E786D6C8D525D6F832014FD2B867754B05D3F8234DDBAFE
310
823DED8D223A52058360FAF3077EC4F9B06E314172EEBDE7DC7302393D9A3AEA85E9A4563940710A22A1B82EA4AA72E06C09F7203A5162B4B63FDA40A45823721060404965B46B27886B65850AA8D2859840D675C28288D7FE92838E7F8986C5CC59DFD1DDE396F13BAB448CE2B18F12E764318DCAC2B3C9520A03E8F68AD0
310
F57D9741B47FBDC0CDCBDB199E517A80F872BD608437E774B7234918A6C4CA6656E746302B0A40718AB6102188B30F941DD3EC880F9F24099D9474D678CF9368700768797B9064C4577CAE2DFEE67352D90C4F7CE3440728F2EB0D054A92908FFF0DE1AD33F4C23E3FCB6EF56CE1EEA15E70ABCDC6570AED9652CF6A273C75
310
1A0D1F49C6AA671E087EE3C14F789E73F8A098AAFC6ACCFAEBCDD9A0BEDEA91506F6F611296D1A562FCB8D2B2EE722B4B2348F735D6BF39FE9D9EA1C66121E26FD06504B03041400060808006E68774784DF6E9E07010000B201000008000000636F72652E786D6C8D50C172832014FC15E6DD51C1A4261924636BFD829E7A
310
A3420C13054720D3FE7D21DA99F6D6D36376F7BD5D969D3FA711DDD5E2B4353590AC00A44C6FA536430DC15FF001D099B3C55AFF4B06C88849D59060E06C586C9837A8B7C62B935063A5DA40E19CF280FA313E6A70FD554D2213C14785BB65B3E86F625019C9561D675E4F3FABFDA2845712382DC81E138269F946CA53519E
310
E8F19DE549C959085A6E565A46777DD16A01BEEF08E95EAB1293C3738B774F2F0D6E4871C4B4ED5A4AE8AE29AA8AE5699933E797F8E7ED48CCE99113F7E4CBF295E2ECC3DA7113C4501259337E012F589E883FA1C32CFF115A1B5FD2EDE0BAE1809318E84144E3D4601C8F7AE34C6DF36F504B010214001400060808006E68
310
77470000000000000000000000003700000000000000000000000000000000006662782F45383434393939352D373233422D343930332D384537462D3446323631334334303744462F617474726962757465732E62696E504B010214001400060808006E687747000000000000000000000000350000000000000000000000
310
0000550000006662782F45383434393939352D373233422D343930332D384537462D3446323631334334303744462F76657274696365732E62696E504B010214001400060808006E687747F270F13306000000040000003600000000000000000000000000A80000006662782F45383434393939352D373233422D34393033
310
2D384537462D3446323631334334303744462F747269616E676C65732E62696E504B010214001400060808006E68774788E57597CD3F0000904100004200000000000000000000000000020100006662782F45383434393939352D373233422D343930332D384537462D3446323631334334303744462F7265736F75726365
310
732F322F305F67656E657269632E706E67504B010214001400060808006E68774751464CB4890000004301000036000000000000000000000000002F4100006662782F45383434393939352D373233422D343930332D384537462D3446323631334334303744462F6469726563746F72792E786D6C504B0102140014000608
310
08006E6877479B09708439070000211C000034000000000000000000000000000C4200006662782F45383434393939352D373233422D343930332D384537462D3446323631334334303744462F6F626A656374732E786D6C504B010214001400060808006E6877473B890128E1000000550100003C00000000000000000000
310
000000974900006662782F45383434393939352D373233422D343930332D384537462D3446323631334334303744462F7265736F75726365732F322F636E782E786D6C504B010214001400060808006E687747FF15A4A45D000000800000003A00000000000000000000000000D24A00006662782F45383434393939352D37
310
3233422D343930332D384537462D3446323631334334303744462F7265736F75726365732F636E782E786D6C504B010214001400060808006E68774760F9101842010000560500003000000000000000000000000000874B00006662782F45383434393939352D373233422D343930332D384537462D344632363133433430
310
3744462F636E782E786D6C504B010214001400060808006E6877470E9C3DB77E000000A30000000B00000000000000000000000000174D00006662782F636E782E786D6C504B010214001400060808006E687747A6D797065F000000820000000700000000000000000000000000BE4D0000636E782E786D6C504B01021400
310
1400060808006E687747ECFD112DA8000000260100001300000000000000000000000000424E00005B436F6E74656E745F54797065735D2E786D6C504B010214001400060808006E6877473DEE336E64000000790000001B000000000000000000000000001B4F00006175746F6465736B2D64657369676E2D7061636B6167
310
652E786D6C504B010214001400060808006E687747F9C58C91F30000008E0100003D00000000000000000000000000B84F00006662782F45383434393939352D373233422D343930332D384537462D3446323631334334303744462F7265736F75726365732F322F636F72652E786D6C504B010214001400060808006E6877
310
47B209A6E9F9000000960100003B00000000000000000000000000065100006662782F45383434393939352D373233422D343930332D384537462D3446323631334334303744462F7265736F75726365732F636F72652E786D6C504B010214001400060808006E687747BAF3D1A7F2000000B1010000310000000000000000
310
0000000000585200006662782F45383434393939352D373233422D343930332D384537462D3446323631334334303744462F636F72652E786D6C504B010214001400060808006E687747BAE16F4354010000DD0200000C00000000000000000000000000995300006662782F636F72652E786D6C504B010214001400060808
310
006E68774784DF6E9E07010000B2010000080000000000000000000000000017550000636F72652E786D6C504B050600000000120012002D060000445600000000
  0
XRECORD
  5
17
102
{ACAD_REACTORS
330
12
102
}
330
12
100
AcDbXrecord
280
     1
270
     1
271
     1
  0
XRECORD
  5
16
102
{ACAD_REACTORS
330
12
102
}
330
12
100
AcDbXrecord
280
     1
270
     1
271
     1
  0
XRECORD
  5
18
102
{ACAD_REACTORS
330
12
102
}
330
12
100
AcDbXrecord
280
     1
270
     1
271
     1
  0
XRECORD
  5
15
102
{ACAD_REACTORS
330
12
102
}
330
12
100
AcDbXrecord
280
     1
270
     1
271
     1
  0
XRECORD
  5
24
102
{ACAD_REACTORS
330
22
102
}
330
22
100
AcDbXrecord
280
     1
270
     1
271
     1
  0
XRECORD
  5
23
102
{ACAD_REACTORS
330
22
102
}
330
22
100
AcDbXrecord
280
     1
270
     1
271
     1
  0
XRECORD
  5
27
102
{ACAD_REACTORS
330
22
102
}
330
22
100
AcDbXrecord
280
     1
270
     1
271
     1
  0
XRECORD
  5
26
102
{ACAD_REACTORS
330
22
102
}
330
22
100
AcDbXrecord
280
     1
270
     1
271
     1
  0
XRECORD
  5
28
102
{ACAD_REACTORS
330
22
102
}
330
22
100
AcDbXrecord
280
     1
270
     1
271
     1
  0
XRECORD
  5
25
102
{ACAD_REACTORS
330
22
102
}
330
22
100
AcDbXrecord
280
     1
270
     1
271
     1
  0
XRECORD
  5
74C
102
{ACAD_REACTORS
330
74B
102
}
330
74B
100
AcDbXrecord
280
     1
102
DISPLAYNAME
  1
Imperial24
102
FLAGS
 90
        0
  0
CELLSTYLEMAP
  5
74A
102
{ACAD_REACTORS
330
749
102
}
330
749
100
AcDbCellStyleMap
 90
        3
300
CELLSTYLE
  1
TABLEFORMAT_BEGIN
 90
        5
170
     1
 91
        0
 92
    32768
 62
   257
 93
        1
300
CONTENTFORMAT
  1
CONTENTFORMAT_BEGIN
 90
        0
 91
        0
 92
      512
 93
        0
300

 40
0.0
140
1.0
 94
        5
 62
     0
340
55
144
0.25
309
CONTENTFORMAT_END
171
     0
 94
        0
309
TABLEFORMAT_END
  1
CELLSTYLE_BEGIN
 90
        1
 91
        1
300
_TITLE
309
CELLSTYLE_END
300
CELLSTYLE
  1
TABLEFORMAT_BEGIN
 90
        5
170
     1
 91
        0
 92
        0
 62
   257
 93
        1
300
CONTENTFORMAT
  1
CONTENTFORMAT_BEGIN
 90
        0
 91
        0
 92
      512
 93
        0
300

 40
0.0
140
1.0
 94
        5
 62
     0
340
55
144
0.18
309
CONTENTFORMAT_END
171
     0
 94
        0
309
TABLEFORMAT_END
  1
CELLSTYLE_BEGIN
 90
        2
 91
        1
300
_HEADER
309
CELLSTYLE_END
300
CELLSTYLE
  1
TABLEFORMAT_BEGIN
 90
        5
170
     1
 91
        0
 92
        0
 62
   257
 93
        1
300
CONTENTFORMAT
  1
CONTENTFORMAT_BEGIN
 90
        0
 91
        0
 92
      512
 93
        0
300

 40
0.0
140
1.0
 94
        2
 62
     0
340
55
144
0.18
309
CONTENTFORMAT_END
171
     0
 94
        0
309
TABLEFORMAT_END
  1
CELLSTYLE_BEGIN
 90
        3
 91
        2
300
_DATA
309
CELLSTYLE_END
  0
ENDSEC
  0
EOF
